Зависание фильмов с ac3 (1 Viewer)

thobias

Portal Member
March 11, 2011
6
0
42
Russian Federation Russian Federation
При переключении по плейлисту или нажатии стоп на пульте зависает.для обработки таких дорожек выставлен ffdshow.
Пробовал ставить AC3 Filter. Не виснет, но в свойствах фильмов пропадает Выбор языка и дорожки проигрываются одновременно.Хотя haali стоит.
Вот данные фильма:
  [cut] General
      Complete name : H:\123.rus.eng.WEB-DLRip.avi
      Format : AVI
      Format/Info : Audio Video Interleave
      File size : 845 MiB
      Duration : 47mn 53s
      Overall bit rate : 2 466 Kbps
      Writing application : VirtualDubMod 1.5.10.2 (build 2540/release)
      Writing library : VirtualDubMod build 2540/release
  Video #0
      ID : 0
      Format : MPEG-4 Visual
      Format profile : Advanced Simple@L5
      Format settings, BVOP : 1
      Format settings, QPel : No
      Format settings, GMC : No warppoints
      Format settings, Matrix : Default (H.263)
      Codec ID : XVID
      Codec ID/Hint : XviD
      Duration : 47mn 53s
      Bit rate : 2 100 Kbps
      Width : 720 pixels
      Height : 400 pixels
      Display aspect ratio : 16:9
      Frame rate : 23.976 fps
      Color space : YUV
      Chroma subsampling : 4:2:0
      Bit depth : 8 bits
      Scan type : Progressive
      Compression mode : Lossy
      Bits/(Pixel*Frame) : 0.304
      Stream size : 719 MiB (85%)
      Writing library : XviD 1.2.1 (UTC 2008-12-04)
  Audio #1
      ID : 1
      Format : AC-3
      Format/Info : Audio Coding 3
      Mode extension : CM (complete main)
      Codec ID : 2000
      Duration : 47mn 53s
      Bit rate mode : Constant
      Bit rate : 192 Kbps
      Channel(s) : 2 channels
      Channel positions : Front: L R
      Sampling rate : 48.0 KHz
      Bit depth : 16 bits
      Compression mode : Lossy
      Stream size : 65.8 MiB (8%)
      Alignment : Split accross interleaves
      Interleave, duration : 42 ms (1.00 video frame)
      Interleave, preload duration : 500 ms
  Audio #2
      ID : 2
      Format : AC-3
      Format/Info : Audio Coding 3
      Mode extension : CM (complete main)
      Codec ID : 2000
      Duration : 47mn 53s
      Bit rate mode : Constant
      Bit rate : 160 Kbps
      Channel(s) : 2 channels
      Channel positions : Front: L R
      Sampling rate : 48.0 KHz
      Bit depth : 16 bits
      Compression mode : Lossy
      Stream size : 54.8 MiB (6%)
      Alignment : Split accross interleaves
      Interleave, duration : 42 ms (1.00 video frame)
      Interleave, preload duration : 500 ms[/cut]
Подскажите пожалуйста где крутить.Заранее СПАСИБО

Учимся использовать теги
 

kerber

Portal Pro
November 24, 2008
1,210
6
Russian Federation Russian Federation
Можно попробовать так:
Деинсталировать Haali, удалить от него "хвосты", если остались, ребутнутсья и по новой его поставить. Отметьте галочками все что предложит (может конечно не всё нужно, но avi точно нужно :) ).
Должно помочь. Также поищите тему в которой описывалось про haali, должно быть там много полезного.
 

Users Who Are Viewing This Thread (Users: 0, Guests: 1)

OP Similar threads Forum Replies Date
ge2301 MP2 and E-AC3 5.1 General 2
Similar threads

Top Bottom