Mediaportal hangs pressing Asrock's IR Stop/Pause keys!

Discussion in '1.2.x' started by fanoI, December 28, 2011.

  1. fanoI

    fanoI Portal Pro

    Joined:
    December 26, 2006
    Messages:
    121
    Likes Received:
    1
    Ratings:
    +1 / 0
    MediaPortal Version: 1.10
    MediaPortal Skin: Revision
    Windows Version: Windows XP SP3
    CPU Type: Intel Core I3
    HDD: Seagate 500 GB
    Memory: DDR3 4 GB
    Motherboard: Asrock
    Video Card: Intel I3 embeded GPU
    Video Card Driver:
    Sound Card: Realtek iIntel's embedd audio card
    Sound Card AC3: SPDIF optical
    Sound Card Driver:
    1. TV Card:
    1. TV Card Type:
    1. TV Card Driver:
    2. TV Card:
    2. TV Card Type:
    2. TV Card Driver:
    3. TV Card:
    3. TV Card Type:
    3. TV Card Driver:
    4. TV Card:
    4. TV Card Type:
    4. TV Card Driver:
    MPEG2 Video Codec: Purevideo
    MPEG2 Audio Codec: Purevideo
    h.264 Video Codec:
    Satelite/CableTV Provider:
    HTPC Case: CoolerMaster CM-250
    Cooling:
    Power Supply: AsRock Core100
    Remote: ASRockremote (emulated via Logitech Harmony remote)
    TV: Sony KDL-46W4500
    TV - HTPC Connection: HDMI



    Hy!
    AsRock remote in version 1.1Beta worked well with this:
    https://forum.team-mediaportal.com/remotes-116/how-fix-asrock-330ht-remote-mediaportal-75824/

    now this fix doesn't work anymore (MP API is changed in 1.2, I'd suppose) but if you use "Generic HID Device" I've directional keys working well but if you press any other key not only MediaPortal crash but the entire OS go BSOD talking of a "STOP" 0xf0007 (i I rember correctlu ;) )

    The file is very simple classic DIVX file with MP3 audio nothing exotic as you can see here:

    Code (Text):
    1.  
    2. General
    3. Complete name                    : \\Multivac\****\********************************.avi
    4. Format                           : AVI
    5. Format/Info                      : Audio Video Interleave
    6. File size                        : 1.09 GiB
    7. Duration                         : 1h 29mn
    8. Overall bit rate mode            : Variable
    9. Overall bit rate                 : 1 743 Kbps
    10.  
    11. Video
    12. ID                               : 0
    13. Format                           : MPEG-4 Visual
    14. Format profile                   : Advanced Simple@L5
    15. Format settings, BVOP            : 2
    16. Format settings, QPel            : No
    17. Format settings, GMC             : No warppoints
    18. Format settings, Matrix          : Custom
    19. Codec ID                         : XVID
    20. Codec ID/Hint                    : XviD
    21. Duration                         : 1h 29mn
    22. Bit rate                         : 1 612 Kbps
    23. Width                            : 576 pixels
    24. Height                           : 448 pixels
    25. Display aspect ratio             : 1.286
    26. Frame rate                       : 25.000 fps
    27. Color space                      : YUV
    28. Chroma subsampling               : 4:2:0
    29. Bit depth                        : 8 bits
    30. Scan type                        : Progressive
    31. Compression mode                 : Lossy
    32. Bits/(Pixel*Frame)               : 0.250
    33. Stream size                      : 1.01 GiB (92%)
    34. Title                            : ***************
    35. Writing library                  : XviD 1.2.0.dev47 (UTC 2006-11-01)
    36.  
    37. Audio
    38. ID                               : 1
    39. Format                           : MPEG Audio
    40. Format version                   : Version 1
    41. Format profile                   : Layer 3
    42. Mode                             : Joint stereo
    43. Mode extension                   : MS Stereo
    44. Codec ID                         : 55
    45. Codec ID/Hint                    : MP3
    46. Duration                         : 1h 29mn
    47. Bit rate mode                    : Variable
    48. Bit rate                         : 119 Kbps
    49. Nominal bit rate                 : 128 Kbps
    50. Channel(s)                       : 2 channels
    51. Sampling rate                    : 48.0 KHz
    52. Compression mode                 : Lossy
    53. Stream size                      : 76.1 MiB (7%)
    54. Alignment                        : Aligned on interleaves
    55. Interleave, duration             : 24 ms (0.60 video frame)
    56. Interleave, preload duration     : 165 ms
    57. Title                            : Italiano
    58. Writing library                  : LAME3.98
    59. Encoding settings                : -m j -V 4 -q 3 -lowpass 17 --abr 128
    60.  
    The very strange thing is the bug id reproducible only in normal mode mode and with debug as info if I change this file closes normally and, worst, Windows continues to run as nothing happened (and well the world not finish if fanoI closes a file, right :D)...

    So, sorry sorry if the logs have little infos but I've noother way :confused:

    Thanks for your support :D

    P.S. for now I've to use MP in debug mode... please have pity of me :p

    P.P.S it seems and I repeat seems related to SAF5.02... I have repristinated an old Clonezilla image using only a more recent ffdshow,
    that is r4194, and I can NOW press STOP and the file closes w/o problems and Windows BSOD no more... confused? Me too :confused:
     
Loading...

Users Viewing Thread (Users: 0, Guests: 0)

  1. This site uses cookies to help personalise content, tailor your experience and to keep you logged in if you register.
    By continuing to use this site, you are consenting to our use of cookies.
    Dismiss Notice
  • About The Project

    The vision of the MediaPortal project is to create a free open source media centre application, which supports all advanced media centre functions, and is accessible to all Windows users.

    In reaching this goal we are working every day to make sure our software is one of the best.

             

  • Support MediaPortal!

    The team works very hard to make sure the community is running the best HTPC-software. We give away MediaPortal for free but hosting and software is not for us.

    Care to support our work with a few bucks? We'd really appreciate it!