Mediaportal hangs pressing Asrock's IR Stop/Pause keys! (1 Viewer)

fanoI

Portal Pro
December 26, 2006
121
1
MediaPortal Version: 1.10
MediaPortal Skin: Revision
Windows Version: Windows XP SP3
CPU Type: Intel Core I3
HDD: Seagate 500 GB
Memory: DDR3 4 GB
Motherboard: Asrock
Video Card: Intel I3 embeded GPU
Video Card Driver:
Sound Card: Realtek iIntel's embedd audio card
Sound Card AC3: SPDIF optical
Sound Card Driver:
1. TV Card:
1. TV Card Type:
1. TV Card Driver:
2. TV Card:
2. TV Card Type:
2. TV Card Driver:
3. TV Card:
3. TV Card Type:
3. TV Card Driver:
4. TV Card:
4. TV Card Type:
4. TV Card Driver:
MPEG2 Video Codec: Purevideo
MPEG2 Audio Codec: Purevideo
h.264 Video Codec:
Satelite/CableTV Provider:
HTPC Case: CoolerMaster CM-250
Cooling:
Power Supply: AsRock Core100
Remote: ASRockremote (emulated via Logitech Harmony remote)
TV: Sony KDL-46W4500
TV - HTPC Connection: HDMI

Hy!
AsRock remote in version 1.1Beta worked well with this:
https://forum.team-mediaportal.com/remotes-116/how-fix-asrock-330ht-remote-mediaportal-75824/

now this fix doesn't work anymore (MP API is changed in 1.2, I'd suppose) but if you use "Generic HID Device" I've directional keys working well but if you press any other key not only MediaPortal crash but the entire OS go BSOD talking of a "STOP" 0xf0007 (i I rember correctlu ;) )

The file is very simple classic DIVX file with MP3 audio nothing exotic as you can see here:

Code:
General
Complete name                    : \\Multivac\****\********************************.avi
Format                           : AVI
Format/Info                      : Audio Video Interleave
File size                        : 1.09 GiB
Duration                         : 1h 29mn
Overall bit rate mode            : Variable
Overall bit rate                 : 1 743 Kbps

Video
ID                               : 0
Format                           : MPEG-4 Visual
Format profile                   : Advanced Simple@L5
Format settings, BVOP            : 2
Format settings, QPel            : No
Format settings, GMC             : No warppoints
Format settings, Matrix          : Custom
Codec ID                         : XVID
Codec ID/Hint                    : XviD
Duration                         : 1h 29mn
Bit rate                         : 1 612 Kbps
Width                            : 576 pixels
Height                           : 448 pixels
Display aspect ratio             : 1.286
Frame rate                       : 25.000 fps
Color space                      : YUV
Chroma subsampling               : 4:2:0
Bit depth                        : 8 bits
Scan type                        : Progressive
Compression mode                 : Lossy
Bits/(Pixel*Frame)               : 0.250
Stream size                      : 1.01 GiB (92%)
Title                            : ***************
Writing library                  : XviD 1.2.0.dev47 (UTC 2006-11-01)

Audio
ID                               : 1
Format                           : MPEG Audio
Format version                   : Version 1
Format profile                   : Layer 3
Mode                             : Joint stereo
Mode extension                   : MS Stereo
Codec ID                         : 55
Codec ID/Hint                    : MP3
Duration                         : 1h 29mn
Bit rate mode                    : Variable
Bit rate                         : 119 Kbps
Nominal bit rate                 : 128 Kbps
Channel(s)                       : 2 channels
Sampling rate                    : 48.0 KHz
Compression mode                 : Lossy
Stream size                      : 76.1 MiB (7%)
Alignment                        : Aligned on interleaves
Interleave, duration             : 24 ms (0.60 video frame)
Interleave, preload duration     : 165 ms
Title                            : Italiano
Writing library                  : LAME3.98 
Encoding settings                : -m j -V 4 -q 3 -lowpass 17 --abr 128
The very strange thing is the bug id reproducible only in normal mode mode and with debug as info if I change this file closes normally and, worst, Windows continues to run as nothing happened (and well the world not finish if fanoI closes a file, right :D)...

So, sorry sorry if the logs have little infos but I've noother way :confused:

Thanks for your support :D

P.S. for now I've to use MP in debug mode... please have pity of me :p

P.P.S it seems and I repeat seems related to SAF5.02... I have repristinated an old Clonezilla image using only a more recent ffdshow,
that is r4194, and I can NOW press STOP and the file closes w/o problems and Windows BSOD no more... confused? Me too :confused:
 

Users Who Are Viewing This Thread (Users: 0, Guests: 1)

OP Similar threads Forum Replies Date
A Mediaportal Allgemeines Support- und Diskussionsforum 0
G Update von MediaPortal Installationsprobleme? 0
ajs [News] MediaPortal 1 - 1.25 Released! News and Announcements 1
horned_reaper Standby is prevented by MediaPortal client General Support 0
U [solved] MediaPortal crashing on startup General Support 10
g0rsq Info box randomly popping up when watching TV or other video MediaPortal 2 Newcomers Forum 1
high [unanswered] Hallo möchte gerne Mediaportal. nutzen kann mich jemand anrufen? contactform feedback and requests 2
ajs [News] MediaPortal 1.25 Pre-Release ready for testing! News and Announcements 0
ajs [Rejected] Mediaportal Codename MediaPortal 1 41
M 2nd (Touch-)Display Support on MediaPortal 2 such MPDisplay++? General 2
N Steam release of MediaPortal MediaPortal 1 Talk 0
torone Dritter versuch mit Mediaportal 2 Allgemeines Support- und Diskussionsforum 1
M Fehlerhafter Link auf der aktuellen MediaPortal Seite Page- und Forumsfeedback 0
H 1.24.0 MP 1.24 high CPU utilization when 'Keep MediaPortal always on top' option enabled Bugreports 4
mickb [solved] Mediaportal Stops working General Support 5
J [solved] Newbie to MediaPortal 2 - Cannot open/run TV programs Newcomers Forum 4
atlantic How to use Spotify inside Mediaportal? Listen Music 18
horned_reaper MediaPortal configuration error log message General Support 1
Rob Hexenmeister Mediaportal Properties #plot etc... General Support 3
ajs [News] MediaPortal 1 - 1.24 Released! News and Announcements 3
S [solved] access the desktop without leaving mediaportal General Support 5
J New computer with win10 and how will i set Mediaportal up ? Newcomers Forum 55
T MediaPortal Extensions Manager Fehlermeldung bei Installation einer Erweiterung Installationsprobleme? 1
geotwticher TV Guide EPG Grabber for Australia 2020 RIP freepg.tv General 4
azzuro [News] MediaPortal 1.24 Pre-Release ready for testing! News and Announcements 0
Similar threads

























Top Bottom