[solved] - Fanart Handler: Sonderzeichen im Bandnamen | Page 2

Discussion in 'Plugins & Erweiterungen' started by rbo, October 23, 2016.

  1. ajs
    • Team MediaPortal

    ajs Development Group

    Joined:
    February 29, 2008
    Messages:
    8,746
    Likes Received:
    2,730
    Gender:
    Male
    Occupation:
    IT
    Location:
    Kyiv
    Ratings:
    +4,709 / 30
    Home Country:
    Ukraine Ukraine
    Show System Specs
    Rename dad (???).jpg to d_a_d (???).jpg and try :):whistle::coffee:


     
  2. Google AdSense Guest Advertisement



    to hide all adverts.
  3. ajs
    • Team MediaPortal

    ajs Development Group

    Joined:
    February 29, 2008
    Messages:
    8,746
    Likes Received:
    2,730
    Gender:
    Male
    Occupation:
    IT
    Location:
    Kyiv
    Ratings:
    +4,709 / 30
    Home Country:
    Ukraine Ukraine
    Show System Specs
    Or try fixed DB (i rename in DB dad -> d a d) :):coffee:
     

    Attached Files:

  4. rbo

    rbo Portal Pro

    Joined:
    May 1, 2007
    Messages:
    379
    Likes Received:
    11
    Location:
    Ludwigsburg
    Ratings:
    +23 / 1
    Home Country:
    Germany Germany
    Show System Specs
    It doesn't work. Wether with renaming nor your modified db.
     
  5. ajs
    • Team MediaPortal

    ajs Development Group

    Joined:
    February 29, 2008
    Messages:
    8,746
    Likes Received:
    2,730
    Gender:
    Male
    Occupation:
    IT
    Location:
    Kyiv
    Ratings:
    +4,709 / 30
    Home Country:
    Ukraine Ukraine
    Show System Specs
    Hmmmm, i test at home ...

    --
    WBR, Andrew J.Swan
     
  6. ajs
    • Team MediaPortal

    ajs Development Group

    Joined:
    February 29, 2008
    Messages:
    8,746
    Likes Received:
    2,730
    Gender:
    Male
    Occupation:
    IT
    Location:
    Kyiv
    Ratings:
    +4,709 / 30
    Home Country:
    Ukraine Ukraine
    Show System Specs
    D.A.D. - Helpyourselfish (1995) - Ok for test? Or wrong?

    PS: D-A-D is a Danish rock band. It was originally named "Disneyland After Dark", but had to be renamed after The Walt Disney Company threatened a lawsuit. Their style of music is often categorized as melodic heavy rock. The band has also stylized its name as D.A.D., D•A•D, and D:A:D, each name representing a period in the band's history.

    ie:
    for D-A-D -> D-A-D (9999).jpg
    for D.A.D. -> D.A.D. (9999).jpg
    for D:A:D -> D_A_D (9999).jpg
    for D:A:D: -> D_A_D_ (9999).jpg

    After rename, restart MP ...
    --
    WBR, Andrew J.Swan
     
    Last edited: October 26, 2016
  7. ajs
    • Team MediaPortal

    ajs Development Group

    Joined:
    February 29, 2008
    Messages:
    8,746
    Likes Received:
    2,730
    Gender:
    Male
    Occupation:
    IT
    Location:
    Kyiv
    Ratings:
    +4,709 / 30
    Home Country:
    Ukraine Ukraine
    Show System Specs
    Screenshot for D.A.D. plz ...
     
  8. rbo

    rbo Portal Pro

    Joined:
    May 1, 2007
    Messages:
    379
    Likes Received:
    11
    Location:
    Ludwigsburg
    Ratings:
    +23 / 1
    Home Country:
    Germany Germany
    Show System Specs
    So, I copied one jpg to the 'Skin FanArt\UserDef\music'-Folder (D_A_D (1).jpg) and there is nothing to see.
     

    Attached Files:

    • d_a_d.jpg
      d_a_d.jpg
      File size:
      169.3 KB
      Uploaded:
      October 27, 2016
      Views:
      72
    • d_a_d1.jpg
      d_a_d1.jpg
      File size:
      97 KB
      Uploaded:
      October 27, 2016
      Views:
      78
  9. ajs
    • Team MediaPortal

    ajs Development Group

    Joined:
    February 29, 2008
    Messages:
    8,746
    Likes Received:
    2,730
    Gender:
    Male
    Occupation:
    IT
    Location:
    Kyiv
    Ratings:
    +4,709 / 30
    Home Country:
    Ukraine Ukraine
    Show System Specs
    Try move it to: 'Skin FanArt\Scraper\music' :)
     
  10. rbo

    rbo Portal Pro

    Joined:
    May 1, 2007
    Messages:
    379
    Likes Received:
    11
    Location:
    Ludwigsburg
    Ratings:
    +23 / 1
    Home Country:
    Germany Germany
    Show System Specs
    Nothing changed.
     
  11. ajs
    • Team MediaPortal

    ajs Development Group

    Joined:
    February 29, 2008
    Messages:
    8,746
    Likes Received:
    2,730
    Gender:
    Male
    Occupation:
    IT
    Location:
    Kyiv
    Ratings:
    +4,709 / 30
    Home Country:
    Ukraine Ukraine
    Show System Specs
    Ich versuche, zu Hause zu überprüfen ...
    upload_2016-10-27_19-59-45.png
    Code (Text):
    1. REM GENRE Rock
    2. REM DATE 1995
    3. REM DISCID 9A0BFF0C
    4. REM COMMENT "ExactAudioCopy v0.95b4"
    5. PERFORMER "D:A:D"
    6. TITLE "Helpyourselfish"
    7. FILE "DAD - Helpyourselfish.ape" WAVE
    8.   TRACK 01 AUDIO
    9.     TITLE "Reconstrucdead"
    10.     PERFORMER "D:A:D"
    11.     INDEX 01 00:00:00
    12.   TRACK 02 AUDIO
    13.     TITLE "Written In Water"
    14.     PERFORMER "D:A:D"
    15.     INDEX 01 04:15:05
    16.   TRACK 03 AUDIO
    17.     TITLE "Helpyourselfish"
    18.     PERFORMER "D:A:D"
    19.     INDEX 01 08:39:45
    20.   TRACK 04 AUDIO
    21.     TITLE "Soulbender"
    22.     PERFORMER "D:A:D"
    23.     INDEX 00 13:19:17
    24.     INDEX 01 13:19:40
    25.   TRACK 05 AUDIO
    26.     TITLE "Unowned"
    27.     PERFORMER "D:A:D"
    28.     INDEX 00 18:52:25
    29.     INDEX 01 18:53:40
    30.   TRACK 06 AUDIO
    31.     TITLE "Candid"
    32.     PERFORMER "D:A:D"
    33.     INDEX 00 23:09:57
    34.     INDEX 01 23:10:00
    35.   TRACK 07 AUDIO
    36.     TITLE "Blood In/Out"
    37.     PERFORMER "D:A:D"
    38.     INDEX 00 26:29:15
    39.     INDEX 01 26:29:57
    40.   TRACK 08 AUDIO
    41.     TITLE "Prayin' To A God"
    42.     PERFORMER "D:A:D"
    43.     INDEX 00 29:44:72
    44.     INDEX 01 29:45:47
    45.   TRACK 09 AUDIO
    46.     TITLE "Naked (But Still Stripping)"
    47.     PERFORMER "D:A:D"
    48.     INDEX 00 34:20:72
    49.     INDEX 01 34:22:42
    50.   TRACK 10 AUDIO
    51.     TITLE "Are We Alive Here???"
    52.     PERFORMER "D:A:D"
    53.     INDEX 00 39:05:12
    54.     INDEX 01 39:05:35
    55.   TRACK 11 AUDIO
    56.     TITLE "It'swhenit'swrongit'sright"
    57.     PERFORMER "D:A:D"
    58.     INDEX 01 43:55:55
    59.   TRACK 12 AUDIO
    60.     TITLE "Flat"
    61.     PERFORMER "D:A:D"
    62.     INDEX 00 46:38:55
    63.     INDEX 01 46:39:05
     
Loading...

Users Viewing Thread (Users: 0, Guests: 0)

  1. This site uses cookies to help personalise content, tailor your experience and to keep you logged in if you register.
    By continuing to use this site, you are consenting to our use of cookies.
    Dismiss Notice
  • About The Project

    The vision of the MediaPortal project is to create a free open source media centre application, which supports all advanced media centre functions, and is accessible to all Windows users.

    In reaching this goal we are working every day to make sure our software is one of the best.

             

  • Support MediaPortal!

    The team works very hard to make sure the community is running the best HTPC-software. We give away MediaPortal for free but hosting and software is not for us.

    Care to support our work with a few bucks? We'd really appreciate it!