[solved] Fanart Handler: Sonderzeichen im Bandnamen (1 Viewer)

ajs

Development Group
  • Team MediaPortal
  • February 29, 2008
    12,481
    7,175
    Kyiv
    Ukraine Ukraine
    Country flag
    Hmmmm, i test at home ...

    --
    WBR, Andrew J.Swan
     

    ajs

    Development Group
  • Team MediaPortal
  • February 29, 2008
    12,481
    7,175
    Kyiv
    Ukraine Ukraine
    Country flag
    D.A.D. - Helpyourselfish (1995) - Ok for test? Or wrong?

    PS: D-A-D is a Danish rock band. It was originally named "Disneyland After Dark", but had to be renamed after The Walt Disney Company threatened a lawsuit. Their style of music is often categorized as melodic heavy rock. The band has also stylized its name as D.A.D., D•A•D, and D:A:D, each name representing a period in the band's history.

    ie:
    for D-A-D -> D-A-D (9999).jpg
    for D.A.D. -> D.A.D. (9999).jpg
    for D:A:D -> D_A_D (9999).jpg
    for D:A:D: -> D_A_D_ (9999).jpg

    After rename, restart MP ...
    --
    WBR, Andrew J.Swan
     
    Last edited:

    ajs

    Development Group
  • Team MediaPortal
  • February 29, 2008
    12,481
    7,175
    Kyiv
    Ukraine Ukraine
    Country flag
    So, I copied one jpg to the 'Skin FanArt\UserDef\music'-Folder (D_A_D (1).jpg) and there is nothing to see.
    Try move it to: 'Skin FanArt\Scraper\music' :)
     

    ajs

    Development Group
  • Team MediaPortal
  • February 29, 2008
    12,481
    7,175
    Kyiv
    Ukraine Ukraine
    Country flag
    Nothing changed.
    Ich versuche, zu Hause zu überprüfen ...
    upload_2016-10-27_19-59-45.png
    Code:
    REM GENRE Rock
    REM DATE 1995
    REM DISCID 9A0BFF0C
    REM COMMENT "ExactAudioCopy v0.95b4"
    PERFORMER "D:A:D"
    TITLE "Helpyourselfish"
    FILE "DAD - Helpyourselfish.ape" WAVE
      TRACK 01 AUDIO
        TITLE "Reconstrucdead"
        PERFORMER "D:A:D"
        INDEX 01 00:00:00
      TRACK 02 AUDIO
        TITLE "Written In Water"
        PERFORMER "D:A:D"
        INDEX 01 04:15:05
      TRACK 03 AUDIO
        TITLE "Helpyourselfish"
        PERFORMER "D:A:D"
        INDEX 01 08:39:45
      TRACK 04 AUDIO
        TITLE "Soulbender"
        PERFORMER "D:A:D"
        INDEX 00 13:19:17
        INDEX 01 13:19:40
      TRACK 05 AUDIO
        TITLE "Unowned"
        PERFORMER "D:A:D"
        INDEX 00 18:52:25
        INDEX 01 18:53:40
      TRACK 06 AUDIO
        TITLE "Candid"
        PERFORMER "D:A:D"
        INDEX 00 23:09:57
        INDEX 01 23:10:00
      TRACK 07 AUDIO
        TITLE "Blood In/Out"
        PERFORMER "D:A:D"
        INDEX 00 26:29:15
        INDEX 01 26:29:57
      TRACK 08 AUDIO
        TITLE "Prayin' To A God"
        PERFORMER "D:A:D"
        INDEX 00 29:44:72
        INDEX 01 29:45:47
      TRACK 09 AUDIO
        TITLE "Naked (But Still Stripping)"
        PERFORMER "D:A:D"
        INDEX 00 34:20:72
        INDEX 01 34:22:42
      TRACK 10 AUDIO
        TITLE "Are We Alive Here???"
        PERFORMER "D:A:D"
        INDEX 00 39:05:12
        INDEX 01 39:05:35
      TRACK 11 AUDIO
        TITLE "It'swhenit'swrongit'sright"
        PERFORMER "D:A:D"
        INDEX 01 43:55:55
      TRACK 12 AUDIO
        TITLE "Flat"
        PERFORMER "D:A:D"
        INDEX 00 46:38:55
        INDEX 01 46:39:05
     

    Users Who Are Viewing This Thread (Users: 0, Guests: 1)

    OP Similar threads Forum Replies Date
    Rob Hexenmeister [solved] Customising Fanart Handler settings Fanart Handler 3
    franat No funciona ni MepoTools ni DvdArt en castellano Ayuda con MediaPortal 2
    C [solved] RadioTime Plugin 1.5.0.117 and Fanart Handler Fanart Handler 17
    horned_reaper [solved] When playing music Fanart does not shuffle Fanart Handler 20
    horned_reaper [solved] No Fanart when playing Fanart Handler 115
    horned_reaper [solved] When playing music Fanart does not appear immediately after downloading Fanart Handler 272
    morpheus_xx [WiP] WIP 2.3 Fanart issues? MediaPortal 2 13
    J Suggestion on fanart folder organization. Feature Requests 4
    Lehmden [Videos] More filename possibility for MyVideos local fanart. Improvement Suggestions 26
    DHosein MP-TV no longer holding fanart selections My TVSeries 2
    Edwardfc Fanart setup/configuration General 10
    S Immer gleiche Fanart Musik - CD / MP3 2
    Lehmden Additional naming schemes for local fanart Feature Requests 0
    KlausWirn [solved] MePo1 Cover und Fanart in .nfo Datei ablegen Allgemeines Supportforum 8
    fischy667 [Resolved] No fanart for "Who is America?" My TVSeries 15
    azzuro [MP2-753] Fanart for previous item displayed in some cases Archive 3
    Rob Hexenmeister [solved] Latest Media Handler - skinning buttons Fanart Handler 19
    Rob Hexenmeister Latest Media Handler - facade properties - itemcount General Support 3
    Rob Hexenmeister [solved] Latest media handler - time reported as date Fanart Handler 18
    Lichloathe [solved] Latest Media Handler - Default view for TVSeries on startup Fanart Handler 2
    ajs [solved] Latest Media Handler - Skin settings - Custom latests items number Fanart Handler 27
    Rob Hexenmeister [solved] Latests Media Handler - Skinning an updating window or control Fanart Handler 26
    Top Bottom