No AC3 sound ... | Page 9

Discussion in 'watch/edit Videos' started by ajs, April 27, 2016.

Tags:
  1. mm1352000
    • Team MediaPortal

    mm1352000 Development Group

    Joined:
    September 1, 2008
    Messages:
    21,518
    Likes Received:
    4,730
    Ratings:
    +8,196 / 17
    Home Country:
    New Zealand New Zealand
    I really doubt it.

    Never heard of such a thing.

    If I'm right, this is almost certainly a waste of time/money.

    Better to provide the log files that we're waiting for... ;)


     
  2. Google AdSense Guest Advertisement



    to hide all adverts.
  3. kiwijunglist
    • Team MediaPortal

    kiwijunglist Super Moderator

    Joined:
    June 10, 2008
    Messages:
    6,742
    Likes Received:
    1,416
    Occupation:
    Doctor
    Location:
    New Zealand
    Ratings:
    +1,845 / 9
    Home Country:
    New Zealand New Zealand
    Show System Specs
    Fanol. If your av gear can't handle bitstream 44.1 @5.1 then you need to not use bitstream.

    There is no advantage to bitstreaming anyway if you use mpar or reclock as the audio renderer.

    If you want 2 channel audio to be pcm 2.0 and 5.1 channel audio to be pcm 5.1 then use reclock as renderer.
     
  4. fanoI

    fanoI Portal Pro

    Joined:
    December 26, 2006
    Messages:
    121
    Likes Received:
    1
    Ratings:
    +1 / 0
    I should re-have the machine in the week end (I've done it for a parent) and we'll collect all the logs then.

    My AV supports AC3 @ 44.1 KHz as with my HTPC works perfectly!
     
  5. fanoI

    fanoI Portal Pro

    Joined:
    December 26, 2006
    Messages:
    121
    Likes Received:
    1
    Ratings:
    +1 / 0
    This is the mediainfo report of the file nothing particular:

    Code (Text):
    1. General
    2. Complete name                            : F:\no fear in love.avi
    3. Format                                   : AVI
    4. Format/Info                              : Audio Video Interleave
    5. File size                                : 1.12 GiB
    6. Duration                                 : 1h 58mn
    7. Overall bit rate                         : 1 354 Kbps
    8.  
    9. Video
    10. ID                                       : 0
    11. Format                                   : MPEG-4 Visual
    12. Format profile                           : Advanced Simple@L5
    13. Format settings, BVOP                    : 2
    14. Format settings, QPel                    : No
    15. Format settings, GMC                     : No warppoints
    16. Format settings, Matrix                  : Default (H.263)
    17. Codec ID                                 : XVID
    18. Codec ID/Hint                            : XviD
    19. Duration                                 : 1h 58mn
    20. Bit rate                                 : 1 216 Kbps
    21. Width                                    : 640 pixels
    22. Height                                   : 360 pixels
    23. Display aspect ratio                     : 16:9
    24. Frame rate                               : 25.000 fps
    25. Color space                              : YUV
    26. Chroma subsampling                       : 4:2:0
    27. Bit depth                                : 8 bits
    28. Scan type                                : Progressive
    29. Compression mode                         : Lossy
    30. Bits/(Pixel*Frame)                       : 0.211
    31. Stream size                              : 1.00 GiB (90%)
    32. Writing library                          : XviD 1.2.1 (UTC 2008-12-04)
    33.  
    34. Audio
    35. ID                                       : 1
    36. Format                                   : AC-3
    37. Format/Info                              : Audio Coding 3
    38. Mode extension                           : CM (complete main)
    39. Format settings, Endianness              : Big
    40. Codec ID                                 : 2000
    41. Duration                                 : 1h 58mn
    42. Source duration                          : 1h 58mn
    43. Bit rate mode                            : Constant
    44. Bit rate                                 : 128 Kbps
    45. Channel(s)                               : 2 channels
    46. Channel positions                        : Front: L R
    47. Sampling rate                            : 44.1 KHz
    48. Bit depth                                : 16 bits
    49. Compression mode                         : Lossy
    50. Stream size                              : 108 MiB (9%)
    51. Alignment                                : Aligned on interleaves
    52. Interleave, duration                     : 35 ms (0.87 video frame)
    53.  
    Attached is the Mediaportal logs that IMHO is not reporting any error.

    The thing that happens is that LAV Audio tries to connect to filter graph but suddenly is removed and so audio is played!
     
  6. mm1352000
    • Team MediaPortal

    mm1352000 Development Group

    Joined:
    September 1, 2008
    Messages:
    21,518
    Likes Received:
    4,730
    Ratings:
    +8,196 / 17
    Home Country:
    New Zealand New Zealand
    @fanol
    Thanks for providing the log files. However they contain only limited detail. Could you please collect new log files, and this time use the Watchdog tool with option 1 or 2 ("report a bug...") to do it. The Watchdog tool is the preferred method/source for collecting log files. Please use it whenever you can. General instructions for using the Watchdog tool:
    1. Close MP and MP Config.
    2. Open the Watchdog tool.
    3. Select option 1 or 2 then click proceed.
    4. Reproduce the problem. In this case, try to play "D:\no fear in love.avi" or any other file that has a problem.
    5. After the error has happened, close MP. This will trigger the Watchdog tool to collect the log files into a convenient zip file.
    6. Attach the zip file.

    In addition to the Watchdog log files, please could you also provide screenshots showing your LAV audio and MediaPortal Audio Renderer settings. Those settings need to be checked for consistency.
     
Loading...

Users Viewing Thread (Users: 0, Guests: 0)

  1. This site uses cookies to help personalise content, tailor your experience and to keep you logged in if you register.
    By continuing to use this site, you are consenting to our use of cookies.
    Dismiss Notice
  • About The Project

    The vision of the MediaPortal project is to create a free open source media centre application, which supports all advanced media centre functions, and is accessible to all Windows users.

    In reaching this goal we are working every day to make sure our software is one of the best.

             

  • Support MediaPortal!

    The team works very hard to make sure the community is running the best HTPC-software. We give away MediaPortal for free but hosting and software is not for us.

    Care to support our work with a few bucks? We'd really appreciate it!