[solved] Same encoding 1/2 not working? (1 Viewer)

Jeffrey Story

New Member
September 15, 2014
4
0
55
Home Country
United States of America United States of America
I have 318 movies identically encoded, after MANY experiments get my dish hopper dlna dialed in, and the result was mpeg2 (2000br/23.9fps/Main@High 1440) / Ac3 audio all wrapped in a mkv container is "perfect", unfortunately about half of my files show a ? in mp, any idea the first one works fine and the virtually identical 2nd is incompatible?

Video 1;
ID : 1
Format : MPEG Video
Format version : Version 2
Format profile : Main@High 1440
Format settings, BVOP : No
Format settings, Matrix : Default
Codec ID : V_MPEG2
Codec ID/Info : MPEG 1 or 2 Video
Duration : 2h 2mn
Bit rate mode : Variable
Bit rate : 2 449 Kbps
Width : 1 280 pixels
Height : 536 pixels
Display aspect ratio : 2.40:1
Frame rate mode : Constant
Frame rate : 23.976 fps
Color space : YUV
Chroma subsampling : 4:2:0
Bit depth : 8 bits
Scan type : Progressive
Compression mode : Lossy
Bits/(Pixel*Frame) : 0.149
Time code of first frame : 00:00:00:00
Time code source : Group of pictures header
Stream size : 2.09 GiB (93%)
Default : Yes
Forced : No
Encoded date : UTC 2014-05-07 00:06:33
HANDLER_NAME : video.264#trackID=1:fps=23.976 - Imported with GPAC 0.5.0-rev4065

Audio
ID : 2
Format : AC-3
Format/Info : Audio Coding 3
Mode extension : CM (complete main)
Format settings, Endianness : Big
Codec ID : A_AC3
Duration : 2h 2mn
Bit rate mode : Constant
Bit rate : 128 Kbps
Channel(s) : 2 channels
Channel positions : Front: L R
Sampling rate : 48.0 KHz
Bit depth : 16 bits
Compression mode : Lossy
Delay relative to video : -88ms
Stream size : 112 MiB (5%)
Language : English
Default : Yes
Forced : No
Encoded date : UTC 2014-05-07 00:06:39
HANDLER_NAME : GPAC ISO Audio Handler
____________________________________________________________

Video 2
ID : 1
Format : MPEG Video
Format version : Version 2
Format profile : Main@High 1440
Format settings, BVOP : No
Format settings, Matrix : Default
Codec ID : V_MPEG2
Codec ID/Info : MPEG 1 or 2 Video
Duration : 2h 14mn
Bit rate mode : Variable
Bit rate : 1 957 Kbps
Width : 1 280 pixels
Height : 536 pixels
Display aspect ratio : 2.40:1
Frame rate mode : Constant
Frame rate : 23.976 fps
Color space : YUV
Chroma subsampling : 4:2:0
Bit depth : 8 bits
Scan type : Progressive
Compression mode : Lossy
Bits/(Pixel*Frame) : 0.119
Time code of first frame : 00:00:00:00
Time code source : Group of pictures header
Stream size : 1.83 GiB (92%)
Default : Yes
Forced : No

Audio
ID : 2
Format : AC-3
Format/Info : Audio Coding 3
Mode extension : CM (complete main)
Format settings, Endianness : Big
Codec ID : A_AC3
Duration : 2h 14mn
Bit rate mode : Constant
Bit rate : 128 Kbps
Channel(s) : 2 channels
Channel positions : Front: L R
Sampling rate : 48.0 KHz
Bit depth : 16 bits
Compression mode : Lossy
Delay relative to video : 3ms
Stream size : 123 MiB (6%)
Language : English
Default : Yes
Forced : No
 

morpheus_xx

Lead Dev MP2
  • Team MediaPortal
  • March 24, 2007
    11,761
    7,118
    Home Country
    Germany Germany
    Country flag
    unfortunately about half of my files show a ? in mp, any idea the first one works fine and the virtually identical 2nd is incompatible?
    I'm sorry, but I don't understand what you mean by this. Can you explain this a bit further?

    Are you using MediaPortal 2? Did you create a "media source" of type "movie"? How does it look like (screenshot)? What you would expect?

    Additionally, please post logfiles (see https://forum.team-mediaportal.com/threads/how-to-post-a-bug-report-for-mediaportal-2.106173/)
     

    Jeffrey Story

    New Member
    September 15, 2014
    4
    0
    55
    Home Country
    United States of America United States of America
    I was wrong NOTHING works, those were thumbnails that showed not videos, dish hopper dlna 1.5 mkv files (current lav installed & re-installed) mpeg2/ac3/mkv working with minidlna, plex, servio, wild media, koorora, tvercity and pretty much every other server known to man..

    2014-09-17 10:15:39.5498 Info - App: Application version: 3.0.5366.22005
    2014-09-17 10:15:39.5498 Info - App: Command line: C:\Users\Scott\AppData\Roaming\MediaBrowser-Server\System\MediaBrowser.ServerApplication.exe
    2014-09-17 10:15:39.5498 Info - App: Server: MS-SERVERR2
    2014-09-17 10:15:39.5498 Info - App: Operating system: Microsoft Windows NT 6.1.7601 Service Pack 1
    2014-09-17 10:15:39.5498 Info - App: Processor count: 8
    2014-09-17 10:15:39.5498 Info - App: 64-Bit OS: True
    2014-09-17 10:15:39.5498 Info - App: 64-Bit Process: False
    2014-09-17 10:15:39.5625 Info - App: Program data path: C:\Users\Scott\AppData\Roaming\MediaBrowser-Server
    2014-09-17 10:15:39.5625 Info - App: Application Path: C:\Users\Scott\AppData\Roaming\MediaBrowser-Server\System\MediaBrowser.ServerApplication.exe
    2014-09-17 10:15:39.5625 Info - App: *** WHEN REPORTING ISSUES PLEASE INCLUDE THE ENTIRE LOG FILE. ***
    2014-09-17 10:15:39.5625 Info - App: Application configuration:
    {"EnableUPnP":true,"HttpServerPortNumber":8096,"EnableInternetProviders":false,"SeasonZeroDisplayName":"Specials","SaveLocalMeta":false,"PreferredMetadataLanguage":"en","MetadataCountryCode":"US","SortReplaceCharacters":[".","+","%"],"SortRemoveCharacters":[",","&","-","{","}","'"],"SortRemoveWords":["the","a","an"],"ShowLogWindow":false,"MinResumePct":5,"MaxResumePct":90,"MinResumeDurationSeconds":300,"RealtimeMonitorDelay":30,"EnableDashboardResponseCaching":true,"EnableTvDbUpdates":false,"EnableTmdbUpdates":false,"EnableFanArtUpdates":false,"ImageSavingConvention":"Compatible","EnablePeoplePrefixSubFolders":true,"MediaEncodingQuality":"Auto","MetadataOptions":[{"ItemType":"Book","ImageOptions":[{"Type":"Backdrop","Limit":1,"MinWidth":1280}],"DisabledMetadataSavers":[],"LocalMetadataReaderOrder":[],"DisabledMetadataFetchers":[],"MetadataFetcherOrder":[],"DisabledImageFetchers":[],"ImageFetcherOrder":[]},{"ItemType":"MusicAlbum","ImageOptions":[{"Type":"Backdrop","Limit":1,"MinWidth":1280},{"Type":"Disc","Limit":0,"MinWidth":0}],"DisabledMetadataSavers":["Media Browser Xml"],"LocalMetadataReaderOrder":[],"DisabledMetadataFetchers":[],"MetadataFetcherOrder":[],"DisabledImageFetchers":[],"ImageFetcherOrder":[]},{"ItemType":"MusicArtist","ImageOptions":[{"Type":"Backdrop","Limit":1,"MinWidth":1280},{"Type":"Banner","Limit":0,"MinWidth":0},{"Type":"Art","Limit":0,"MinWidth":0}],"DisabledMetadataSavers":["Media Browser Xml"],"LocalMetadataReaderOrder":[],"DisabledMetadataFetchers":[],"MetadataFetcherOrder":[],"DisabledImageFetchers":[],"ImageFetcherOrder":[]},{"ItemType":"Season","ImageOptions":[{"Type":"Backdrop","Limit":0,"MinWidth":1280}],"DisabledMetadataSavers":["Media Browser Xml"],"LocalMetadataReaderOrder":[],"DisabledMetadataFetchers":[],"MetadataFetcherOrder":[],"DisabledImageFetchers":[],"ImageFetcherOrder":[]},{"ItemType":"Movie","ImageOptions":[{"Type":"Backdrop","Limit":3,"MinWidth":1280}],"DisabledMetadataSavers":["Media Browser Xml"],"LocalMetadataReaderOrder":[],"DisabledMetadataFetchers":[],"MetadataFetcherOrder":[],"DisabledImageFetchers":[],"ImageFetcherOrder":[]},{"ItemType":"Episode","ImageOptions":[{"Type":"Backdrop","Limit":3,"MinWidth":1280}],"DisabledMetadataSavers":["Media Browser Xml"],"LocalMetadataReaderOrder":[],"DisabledMetadataFetchers":[],"MetadataFetcherOrder":[],"DisabledImageFetchers":[],"ImageFetcherOrder":[]},{"ItemType":"Series","ImageOptions":[{"Type":"Backdrop","Limit":3,"MinWidth":1280}],"DisabledMetadataSavers":["Media Browser Xml"],"LocalMetadataReaderOrder":[],"DisabledMetadataFetchers":[],"MetadataFetcherOrder":[],"DisabledImageFetchers":[],"ImageFetcherOrder":[]},{"ItemType":"MusicVideo","ImageOptions":[{"Type":"Backdrop","Limit":3,"MinWidth":1280}],"DisabledMetadataSavers":["Media Browser Xml"],"LocalMetadataReaderOrder":[],"DisabledMetadataFetchers":[],"MetadataFetcherOrder":[],"DisabledImageFetchers":[],"ImageFetcherOrder":[]},{"ItemType":"Trailer","ImageOptions":[{"Type":"Backdrop","Limit":3,"MinWidth":1280}],"DisabledMetadataSavers":["Media Browser Xml"],"LocalMetadataReaderOrder":[],"DisabledMetadataFetchers":[],"MetadataFetcherOrder":[],"DisabledImageFetchers":[],"ImageFetcherOrder":[]},{"ItemType":"AdultVideo","ImageOptions":[{"Type":"Backdrop","Limit":3,"MinWidth":1280}],"DisabledMetadataSavers":["Media Browser Xml"],"LocalMetadataReaderOrder":[],"DisabledMetadataFetchers":[],"MetadataFetcherOrder":[],"DisabledImageFetchers":[],"ImageFetcherOrder":[]},{"ItemType":"Video","ImageOptions":[{"Type":"Backdrop","Limit":3,"MinWidth":1280}],"DisabledMetadataSavers":["Media Browser Xml"],"LocalMetadataReaderOrder":[],"DisabledMetadataFetchers":[],"MetadataFetcherOrder":[],"DisabledImageFetchers":[],"ImageFetcherOrder":[]}],"EnableDebugEncodingLogging":true,"TranscodingTempPath":"D:\\Plex","EnableAutomaticRestart":true,"EnableRealtimeMonitor":true,"PathSubstitutions":[],"ServerName":"MPortal","WanDdns":"","UICulture":"en-us","DownMixAudioBoost":2,"DefaultMetadataSettingsApplied":false,"PeopleMetadataOptions":{"DownloadActorMetadata":true,"DownloadDirectorMetadata":true,"DownloadProducerMetadata":false,"DownloadWriterMetadata":false,"DownloadComposerMetadata":false,"DownloadOtherPeopleMetadata":false,"DownloadGuestStarMetadata":false},"SecureApps1":["Dashboard","MBKinect","NuVue","Media Browser Theater"],"SaveMetadataHidden":false,"EnableDebugLevelLogging":true,"EnableAutoUpdate":true,"SystemUpdateLevel":"Release","LogFileRetentionDays":3,"RunAtStartup":true,"IsStartupWizardCompleted":true,"CachePath":"D:\\Plex"}
    2014-09-17 10:15:39.5625 Info - App: Plugins:
    2014-09-17 10:15:44.0800 Info - App: SessionInfoWebSocketListener Begin transmitting over websocket to 127.0.0.1:2128
    2014-09-17 10:15:44.0800 Info - App: ScheduledTasksWebSocketListener Begin transmitting over websocket to 127.0.0.1:2128
    2014-09-17 10:15:44.0800 Debug - HttpServer: HTTP GET http://localhost:8096/mediabrowser/Sessions
    Ip: 127.0.0.1:2126. Headers: Host=localhost:8096,Connection=keep-alive,Accept=application/json, text/javascript, */*; q=0.01,X-MediaBrowser-Token=fe6c0f88d8e245af8b23a14885d085f8,User-Agent=Mozilla/5.0 (Windows NT 6.1; WOW64) AppleWebKit/537.36 (KHTML, like Gecko) Chrome/31.0.1650.48 Safari/537.36,Authorization=MediaBrowser Client="Dashboard", Device="Chrome 31.0.1650.48", DeviceId="d06750c77aaa6d5a17f830dea664c2177997a5b3", Version="3.0.5366.22005", UserId="1ab79bc593c0f06fb57b9be621a8ede7",DNT=1,Accept-Encoding=gzip,deflate,sdch,Accept-Language=en-US,en;q=0.8
    2014-09-17 10:15:44.0800 Debug - HttpServer: HTTP GET http://localhost:8096/mediabrowser/ScheduledTasks?
    Ip: 127.0.0.1:2125. Headers: Host=localhost:8096,Connection=keep-alive,Accept=application/json, text/javascript, */*; q=0.01,X-MediaBrowser-Token=fe6c0f88d8e245af8b23a14885d085f8,User-Agent=Mozilla/5.0 (Windows NT 6.1; WOW64) AppleWebKit/537.36 (KHTML, like Gecko) Chrome/31.0.1650.48 Safari/537.36,Authorization=MediaBrowser Client="Dashboard", Device="Chrome 31.0.1650.48", DeviceId="d06750c77aaa6d5a17f830dea664c2177997a5b3", Version="3.0.5366.22005", UserId="1ab79bc593c0f06fb57b9be621a8ede7",DNT=1,Accept-Encoding=gzip,deflate,sdch,Accept-Language=en-US,en;q=0.8
    2014-09-17 10:15:44.0800 Info - App: ActivityLogWebSocketListener Begin transmitting over websocket to 127.0.0.1:2128
    2014-09-17 10:15:44.1083 Debug - HttpServer: HTTP GET http://localhost:8096/mediabrowser/System/Info
    Ip: 127.0.0.1:2122. Headers: Host=localhost:8096,Connection=keep-alive,Accept=application/json, text/javascript, */*; q=0.01,X-MediaBrowser-Token=fe6c0f88d8e245af8b23a14885d085f8,User-Agent=Mozilla/5.0 (Windows NT 6.1; WOW64) AppleWebKit/537.36 (KHTML, like Gecko) Chrome/31.0.1650.48 Safari/537.36,Authorization=MediaBrowser Client="Dashboard", Device="Chrome 31.0.1650.48", DeviceId="d06750c77aaa6d5a17f830dea664c2177997a5b3", Version="3.0.5366.22005", UserId="1ab79bc593c0f06fb57b9be621a8ede7",DNT=1,Accept-Encoding=gzip,deflate,sdch,Accept-Language=en-US,en;q=0.8
    2014-09-17 10:15:44.1142 Debug - HttpServer: HTTP GET http://localhost:8096/mediabrowser/...ex=0&limit=7&minDate=2014-09-16T17:15:44.092Z
    Ip: 127.0.0.1:2121. Headers: Host=localhost:8096,Connection=keep-alive,Accept=application/json, text/javascript, */*; q=0.01,X-MediaBrowser-Token=fe6c0f88d8e245af8b23a14885d085f8,User-Agent=Mozilla/5.0 (Windows NT 6.1; WOW64) AppleWebKit/537.36 (KHTML, like Gecko) Chrome/31.0.1650.48 Safari/537.36,Authorization=MediaBrowser Client="Dashboard", Device="Chrome 31.0.1650.48", DeviceId="d06750c77aaa6d5a17f830dea664c2177997a5b3", Version="3.0.5366.22005", UserId="1ab79bc593c0f06fb57b9be621a8ede7",DNT=1,Accept-Encoding=gzip,deflate,sdch,Accept-Language=en-US,en;q=0.8
    2014-09-17 10:15:44.1142 Debug - HttpServer: HTTP GET http://localhost:8096/mediabrowser/News/Product?StartIndex=0&Limit=5
    Ip: 127.0.0.1:2124. Headers: Host=localhost:8096,Connection=keep-alive,Accept=application/json, text/javascript, */*; q=0.01,X-MediaBrowser-Token=fe6c0f88d8e245af8b23a14885d085f8,User-Agent=Mozilla/5.0 (Windows NT 6.1; WOW64) AppleWebKit/537.36 (KHTML, like Gecko) Chrome/31.0.1650.48 Safari/537.36,Authorization=MediaBrowser Client="Dashboard", Device="Chrome 31.0.1650.48", DeviceId="d06750c77aaa6d5a17f830dea664c2177997a5b3", Version="3.0.5366.22005", UserId="1ab79bc593c0f06fb57b9be621a8ede7",DNT=1,Accept-Encoding=gzip,deflate,sdch,Accept-Language=en-US,en;q=0.8
    2014-09-17 10:15:44.1308 Debug - HttpServer: HTTP Response 200 to 127.0.0.1. Response time: 3.9063 ms.
    Url: http://localhost:8096/mediabrowser/Sessions
    2014-09-17 10:15:44.1308 Debug - HttpServer: HTTP Response 200 to 127.0.0.1. Response time: 1.9531 ms.
    Url: http://localhost:8096/mediabrowser/ScheduledTasks?
    2014-09-17 10:15:44.1406 Debug - HttpServer: HTTP Response 200 to 127.0.0.1. Response time: 1.9531 ms.
    Url: http://localhost:8096/mediabrowser/News/Product?StartIndex=0&Limit=5
    2014-09-17 10:15:44.1406 Debug - HttpServer: HTTP Response 200 to 127.0.0.1. Response time: 1.9531 ms.
    Url: http://localhost:8096/mediabrowser/...ex=0&limit=7&minDate=2014-09-16T17:15:44.092Z
    2014-09-17 10:15:44.2001 Debug - HttpServer: HTTP GET http://localhost:8096/mediabrowser/web/dashboard.html
    Ip: 127.0.0.1:2124. Headers: Host=localhost:8096,Connection=keep-alive,User-Agent=Mozilla/5.0 (Windows NT 6.1; WOW64) AppleWebKit/537.36 (KHTML, like Gecko) Chrome/31.0.1650.48 Safari/537.36,Accept=*/*,DNT=1,Accept-Encoding=gzip,deflate,sdch,Accept-Language=en-US,en;q=0.8,If-None-Match=ed1b7f0af5cd53cfb9bc318fa0817feb
    2014-09-17 10:15:44.2001 Debug - HttpServer: HTTP Response 200 to 127.0.0.1. Response time: 57.6172 ms.
    Url: http://localhost:8096/mediabrowser/System/Info
    2014-09-17 10:15:44.2041 Debug - HttpServer: HTTP Response 304 to 127.0.0.1. Response time: 0.9766 ms.
    Url: http://localhost:8096/mediabrowser/web/dashboard.html
    2014-09-17 10:15:44.2041 Debug - HttpServer: HTTP GET http://localhost:8096/mediabrowser/Packages/Updates?PackageType=UserInstalled
    Ip: 127.0.0.1:2124. Headers: Host=localhost:8096,Connection=keep-alive,Accept=application/json, text/javascript, */*; q=0.01,X-MediaBrowser-Token=fe6c0f88d8e245af8b23a14885d085f8,User-Agent=Mozilla/5.0 (Windows NT 6.1; WOW64) AppleWebKit/537.36 (KHTML, like Gecko) Chrome/31.0.1650.48 Safari/537.36,Authorization=MediaBrowser Client="Dashboard", Device="Chrome 31.0.1650.48", DeviceId="d06750c77aaa6d5a17f830dea664c2177997a5b3", Version="3.0.5366.22005", UserId="1ab79bc593c0f06fb57b9be621a8ede7",DNT=1,Accept-Encoding=gzip,deflate,sdch,Accept-Language=en-US,en;q=0.8
    2014-09-17 10:15:44.2041 Debug - HttpServer: HTTP Response 200 to 127.0.0.1. Response time: 0.9766 ms.
    Url: http://localhost:8096/mediabrowser/Packages/Updates?PackageType=UserInstalled
    2014-09-17 10:15:44.2392 Debug - HttpServer: HTTP GET http://localhost:8096/mediabrowser/Packages/Updates?PackageType=System
    Ip: 127.0.0.1:2124. Headers: Host=localhost:8096,Connection=keep-alive,Accept=application/json, text/javascript, */*; q=0.01,X-MediaBrowser-Token=fe6c0f88d8e245af8b23a14885d085f8,User-Agent=Mozilla/5.0 (Windows NT 6.1; WOW64) AppleWebKit/537.36 (KHTML, like Gecko) Chrome/31.0.1650.48 Safari/537.36,Authorization=MediaBrowser Client="Dashboard", Device="Chrome 31.0.1650.48", DeviceId="d06750c77aaa6d5a17f830dea664c2177997a5b3", Version="3.0.5366.22005", UserId="1ab79bc593c0f06fb57b9be621a8ede7",DNT=1,Accept-Encoding=gzip,deflate,sdch,Accept-Language=en-US,en;q=0.8
    2014-09-17 10:15:44.2392 Debug - HttpServer: HTTP Response 200 to 127.0.0.1. Response time: 0 ms.
    Url: http://localhost:8096/mediabrowser/Packages/Updates?PackageType=System
    2014-09-17 10:15:54.3896 Debug - HttpServer: HTTP GET http://localhost:8096/mediabrowser/web/support.html
    Ip: 127.0.0.1:2124. Headers: Host=localhost:8096,Connection=keep-alive,Accept=text/html, */*; q=0.01,User-Agent=Mozilla/5.0 (Windows NT 6.1; WOW64) AppleWebKit/537.36 (KHTML, like Gecko) Chrome/31.0.1650.48 Safari/537.36,DNT=1,Accept-Encoding=gzip,deflate,sdch,Accept-Language=en-US,en;q=0.8,If-None-Match=742fb88a779901523470e6d21a48cf9d
    2014-09-17 10:15:54.3955 Debug - HttpServer: HTTP Response 304 to 127.0.0.1. Response time: 0.9765 ms.
    Url: http://localhost:8096/mediabrowser/web/support.html
    2014-09-17 10:15:54.4101 Debug - HttpServer: HTTP GET http://localhost:8096/mediabrowser/...3c0f06fb57b9be621a8ede7?StartIndex=0&Limit=10
    Ip: 127.0.0.1:2124. Headers: Host=localhost:8096,Connection=keep-alive,Accept=application/json, text/javascript, */*; q=0.01,X-MediaBrowser-Token=fe6c0f88d8e245af8b23a14885d085f8,User-Agent=Mozilla/5.0 (Windows NT 6.1; WOW64) AppleWebKit/537.36 (KHTML, like Gecko) Chrome/31.0.1650.48 Safari/537.36,Authorization=MediaBrowser Client="Dashboard", Device="Chrome 31.0.1650.48", DeviceId="d06750c77aaa6d5a17f830dea664c2177997a5b3", Version="3.0.5366.22005", UserId="1ab79bc593c0f06fb57b9be621a8ede7",DNT=1,Accept-Encoding=gzip,deflate,sdch,Accept-Language=en-US,en;q=0.8
    2014-09-17 10:15:54.4277 Debug - HttpServer: HTTP Response 200 to 127.0.0.1. Response time: 14.6484 ms.
    Url: http://localhost:8096/mediabrowser/...3c0f06fb57b9be621a8ede7?StartIndex=0&Limit=10
    2014-09-17 10:15:54.4570 Info - App: ActivityLogWebSocketListener Begin transmitting over websocket to 127.0.0.1:2128
    2014-09-17 10:15:54.4570 Info - App: SessionInfoWebSocketListener stop transmitting over websocket to 127.0.0.1:2128
    2014-09-17 10:15:54.4570 Info - App: ActivityLogWebSocketListener stop transmitting over websocket to 127.0.0.1:2128
    2014-09-17 10:15:54.4570 Info - App: ScheduledTasksWebSocketListener stop transmitting over websocket to 127.0.0.1:2128
    2014-09-17 10:15:54.4697 Debug - HttpServer: HTTP GET http://localhost:8096/mediabrowser/web/support.html
    Ip: 127.0.0.1:2124. Headers: Host=localhost:8096,Connection=keep-alive,User-Agent=Mozilla/5.0 (Windows NT 6.1; WOW64) AppleWebKit/537.36 (KHTML, like Gecko) Chrome/31.0.1650.48 Safari/537.36,Accept=*/*,DNT=1,Accept-Encoding=gzip,deflate,sdch,Accept-Language=en-US,en;q=0.8,If-None-Match=742fb88a779901523470e6d21a48cf9d
    2014-09-17 10:15:54.4873 Debug - HttpServer: HTTP Response 304 to 127.0.0.1. Response time: 0.9766 ms.
    Url: http://localhost:8096/mediabrowser/web/support.html
    2014-09-17 10:15:56.4316 Debug - HttpServer: HTTP GET http://localhost:8096/mediabrowser/web/log.html
    Ip: 127.0.0.1:2124. Headers: Host=localhost:8096,Connection=keep-alive,Accept=text/html, */*; q=0.01,User-Agent=Mozilla/5.0 (Windows NT 6.1; WOW64) AppleWebKit/537.36 (KHTML, like Gecko) Chrome/31.0.1650.48 Safari/537.36,DNT=1,Accept-Encoding=gzip,deflate,sdch,Accept-Language=en-US,en;q=0.8
    2014-09-17 10:15:56.4667 Debug - HttpServer: HTTP Response 200 to 127.0.0.1. Response time: 29.2968 ms.
    Url: http://localhost:8096/mediabrowser/web/log.html
    2014-09-17 10:15:56.4687 Debug - HttpServer: HTTP GET http://localhost:8096/mediabrowser/...3c0f06fb57b9be621a8ede7?StartIndex=0&Limit=10
    Ip: 127.0.0.1:2124. Headers: Host=localhost:8096,Connection=keep-alive,Accept=application/json, text/javascript, */*; q=0.01,X-MediaBrowser-Token=fe6c0f88d8e245af8b23a14885d085f8,User-Agent=Mozilla/5.0 (Windows NT 6.1; WOW64) AppleWebKit/537.36 (KHTML, like Gecko) Chrome/31.0.1650.48 Safari/537.36,Authorization=MediaBrowser Client="Dashboard", Device="Chrome 31.0.1650.48", DeviceId="d06750c77aaa6d5a17f830dea664c2177997a5b3", Version="3.0.5366.22005", UserId="1ab79bc593c0f06fb57b9be621a8ede7",DNT=1,Accept-Encoding=gzip,deflate,sdch,Accept-Language=en-US,en;q=0.8
    2014-09-17 10:15:56.4853 Debug - HttpServer: HTTP Response 200 to 127.0.0.1. Response time: 0.9766 ms.
    Url: http://localhost:8096/mediabrowser/...3c0f06fb57b9be621a8ede7?StartIndex=0&Limit=10
    2014-09-17 10:15:56.5058 Debug - HttpServer: HTTP GET http://localhost:8096/mediabrowser/System/Logs
    Ip: 127.0.0.1:2124. Headers: Host=localhost:8096,Connection=keep-alive,Accept=application/json, text/javascript, */*; q=0.01,X-MediaBrowser-Token=fe6c0f88d8e245af8b23a14885d085f8,User-Agent=Mozilla/5.0 (Windows NT 6.1; WOW64) AppleWebKit/537.36 (KHTML, like Gecko) Chrome/31.0.1650.48 Safari/537.36,Authorization=MediaBrowser Client="Dashboard", Device="Chrome 31.0.1650.48", DeviceId="d06750c77aaa6d5a17f830dea664c2177997a5b3", Version="3.0.5366.22005", UserId="1ab79bc593c0f06fb57b9be621a8ede7",DNT=1,Accept-Encoding=gzip,deflate,sdch,Accept-Language=en-US,en;q=0.8
    2014-09-17 10:15:56.5214 Debug - HttpServer: HTTP Response 200 to 127.0.0.1. Response time: 11.7187 ms.
    Url: http://localhost:8096/mediabrowser/System/Logs
    2014-09-17 10:15:56.5595 Debug - HttpServer: HTTP GET http://localhost:8096/mediabrowser/web/log.html
    Ip: 127.0.0.1:2124. Headers: Host=localhost:8096,Connection=keep-alive,User-Agent=Mozilla/5.0 (Windows NT 6.1; WOW64) AppleWebKit/537.36 (KHTML, like Gecko) Chrome/31.0.1650.48 Safari/537.36,Accept=*/*,DNT=1,Accept-Encoding=gzip,deflate,sdch,Accept-Language=en-US,en;q=0.8,If-None-Match=aee7af9c9cdefba4b2f89818d86634c8
    2014-09-17 10:15:56.5625 Debug - HttpServer: HTTP Response 304 to 127.0.0.1. Response time: 0.9765 ms.
    Url: http://localhost:8096/mediabrowser/web/log.html
    2014-09-17 10:15:58.7031 Debug - Dlna: Sending alive notifications
    2014-09-17 10:15:58.7031 Debug - Dlna: uuid:db1133ce897e68a99a1f5d381dc17066::upnp:rootdevice said alive
    2014-09-17 10:15:58.7031 Debug - Dlna: NOTIFY * HTTP/1.1
    HOST: 239.255.255.250:1900
    CACHE-CONTROL: max-age = 600
    LOCATION: http://192.168.1.112:8096/mediabrowser/dlna/db1133ce897e68a99a1f5d381dc17066/description.xml
    SERVER: WIN32/6.1 UPnP/1.0 DLNADOC/1.5 MediaBrowser/3.0.5366.22005
    NTS: ssdp:alive
    NT: upnp:rootdevice
    USN: uuid:db1133ce897e68a99a1f5d381dc17066::upnp:rootdevice

    ��������������������������������������������������������������������������������������������������������������������������������������������������������������������������������������������������������������������������������������������������������������������������������������������������������������������������������������������������������������������������������������������������������������������������������������������������������������������������������������������������������������������������������������������������������������������������������������������������������������������������������������������������������������������������������������������������
    2014-09-17 10:15:58.7187 Debug - Dlna: NOTIFY message received from 192.168.1.112:49496 on 0.0.0.0:1900. Headers: HOST=239.255.255.250:1900,CACHE-CONTROL=max-age = 600,LOCATION=http://192.168.1.112:8096/mediabrow...5d381dc17066/description.xml,SERVER=WIN32/6.1 UPnP/1.0 DLNADOC/1.5 MediaBrowser/3.0.5366.22005,NTS=ssdp:alive,NT=upnp:rootdevice,USN=uuid:db1133ce897e68a99a1f5d381dc17066::upnp:rootdevice
    2014-09-17 10:15:58.7031 Debug - Dlna: NOTIFY Device message received from 192.168.1.112:1900. Headers: HOST=239.255.255.250:1900,CACHE-CONTROL=max-age = 600,LOCATION=http://192.168.1.112:8096/mediabrow...5d381dc17066/description.xml,SERVER=WIN32/6.1 UPnP/1.0 DLNADOC/1.5 MediaBrowser/3.0.5366.22005,NTS=ssdp:alive,NT=upnp:rootdevice,USN=uuid:db1133ce897e68a99a1f5d381dc17066::upnp:rootdevice
    2014-09-17 10:15:58.7187 Debug - Dlna: NOTIFY Device message received from 192.168.1.125:1900. Headers: HOST=239.255.255.250:1900,CACHE-CONTROL=max-age = 600,LOCATION=http://192.168.1.112:8096/mediabrow...5d381dc17066/description.xml,SERVER=WIN32/6.1 UPnP/1.0 DLNADOC/1.5 MediaBrowser/3.0.5366.22005,NTS=ssdp:alive,NT=upnp:rootdevice,USN=uuid:db1133ce897e68a99a1f5d381dc17066::upnp:rootdevice
    2014-09-17 10:15:58.7031 Debug - Dlna: uuid:db1133ce897e68a99a1f5d381dc17066::urn:schemas-upnp-org:device:MediaServer:1 said alive
    2014-09-17 10:15:58.7343 Debug - Dlna: NOTIFY Device message received from 192.168.1.112:1900. Headers: HOST=239.255.255.250:1900,CACHE-CONTROL=max-age = 600,LOCATION=http://192.168.1.112:8096/mediabrow...5d381dc17066/description.xml,SERVER=WIN32/6.1 UPnP/1.0 DLNADOC/1.5 MediaBrowser/3.0.5366.22005,NTS=ssdp:alive,NT=urn:schemas-upnp-org:device:MediaServer:1,USN=uuid:db1133ce897e68a99a1f5d381dc17066::urn:schemas-upnp-org:device:MediaServer:1
    2014-09-17 10:15:58.7343 Debug - Dlna: NOTIFY Device message received from 192.168.1.125:1900. Headers: HOST=239.255.255.250:1900,CACHE-CONTROL=max-age = 600,LOCATION=http://192.168.1.112:8096/mediabrow...5d381dc17066/description.xml,SERVER=WIN32/6.1 UPnP/1.0 DLNADOC/1.5 MediaBrowser/3.0.5366.22005,NTS=ssdp:alive,NT=urn:schemas-upnp-org:device:MediaServer:1,USN=uuid:db1133ce897e68a99a1f5d381dc17066::urn:schemas-upnp-org:device:MediaServer:1
    2014-09-17 10:15:58.7343 Debug - Dlna: uuid:db1133ce897e68a99a1f5d381dc17066::urn:schemas-upnp-org:service:ContentDirectory:1 said alive
    2014-09-17 10:15:58.7509 Debug - Dlna: NOTIFY Device message received from 192.168.1.112:1900. Headers: HOST=239.255.255.250:1900,CACHE-CONTROL=max-age = 600,LOCATION=http://192.168.1.112:8096/mediabrow...5d381dc17066/description.xml,SERVER=WIN32/6.1 UPnP/1.0 DLNADOC/1.5 MediaBrowser/3.0.5366.22005,NTS=ssdp:alive,NT=urn:schemas-upnp-org:service:ContentDirectory:1,USN=uuid:db1133ce897e68a99a1f5d381dc17066::urn:schemas-upnp-org:service:ContentDirectory:1
    2014-09-17 10:15:58.7509 Debug - Dlna: uuid:db1133ce897e68a99a1f5d381dc17066 said alive
    2014-09-17 10:15:58.7509 Debug - Dlna: NOTIFY Device message received from 192.168.1.112:1900. Headers: HOST=239.255.255.250:1900,CACHE-CONTROL=max-age = 600,LOCATION=http://192.168.1.112:8096/mediabrow...5d381dc17066/description.xml,SERVER=WIN32/6.1 UPnP/1.0 DLNADOC/1.5 MediaBrowser/3.0.5366.22005,NTS=ssdp:alive,NT=uuid:db1133ce897e68a99a1f5d381dc17066,USN=uuid:db1133ce897e68a99a1f5d381dc17066
    2014-09-17 10:15:58.7509 Debug - Dlna: NOTIFY Device message received from 192.168.1.112:49496. Headers: HOST=239.255.255.250:1900,CACHE-CONTROL=max-age = 600,LOCATION=http://192.168.1.112:8096/mediabrow...5d381dc17066/description.xml,SERVER=WIN32/6.1 UPnP/1.0 DLNADOC/1.5 MediaBrowser/3.0.5366.22005,NTS=ssdp:alive,NT=upnp:rootdevice,USN=uuid:db1133ce897e68a99a1f5d381dc17066::upnp:rootdevice
    2014-09-17 10:15:58.7509 Debug - Dlna: NOTIFY Device message received from 192.168.1.125:1900. Headers: HOST=239.255.255.250:1900,CACHE-CONTROL=max-age = 600,LOCATION=http://192.168.1.112:8096/mediabrow...5d381dc17066/description.xml,SERVER=WIN32/6.1 UPnP/1.0 DLNADOC/1.5 MediaBrowser/3.0.5366.22005,NTS=ssdp:alive,NT=urn:schemas-upnp-org:service:ContentDirectory:1,USN=uuid:db1133ce897e68a99a1f5d381dc17066::urn:schemas-upnp-org:service:ContentDirectory:1
    2014-09-17 10:15:58.7656 Debug - Dlna: NOTIFY Device message received from 192.168.1.125:1900. Headers: HOST=239.255.255.250:1900,CACHE-CONTROL=max-age = 600,LOCATION=http://192.168.1.112:8096/mediabrow...5d381dc17066/description.xml,SERVER=WIN32/6.1 UPnP/1.0 DLNADOC/1.5 MediaBrowser/3.0.5366.22005,NTS=ssdp:alive,NT=uuid:db1133ce897e68a99a1f5d381dc17066,USN=uuid:db1133ce897e68a99a1f5d381dc17066
    2014-09-17 10:15:58.7509 Debug - Dlna: uuid:69251f6cc4ad96a5320ed9c78345f822::upnp:rootdevice said alive
    2014-09-17 10:15:58.7509 Debug - Dlna: NOTIFY * HTTP/1.1
    HOST: 239.255.255.250:1900
    CACHE-CONTROL: max-age = 600
    LOCATION: http://192.168.1.112:8096/mediabrowser/dlna/db1133ce897e68a99a1f5d381dc17066/description.xml
    SERVER: WIN32/6.1 UPnP/1.0 DLNADOC/1.5 MediaBrowser/3.0.5366.22005
    NTS: ssdp:alive
    NT: urn:schemas-upnp-org:device:MediaServer:1
    USN: uuid:db1133ce897e68a99a1f5d381dc17066::urn:schemas-upnp-org:device:MediaServer:1

    ����������������������������������������������������������������������������������������������������������������������������������������������������������������������������������������������������������������������������������������������������������������������������������������������������������������������������������������������������������������������������������������������������������������������������������������������������������������������������������������������������������������������������������������������������������������������������������������������������������������������������������������������
    2014-09-17 10:15:58.7656 Debug - Dlna: NOTIFY message received from 192.168.1.112:49497 on 0.0.0.0:1900. Headers: HOST=239.255.255.250:1900,CACHE-CONTROL=max-age = 600,LOCATION=http://192.168.1.112:8096/mediabrow...5d381dc17066/description.xml,SERVER=WIN32/6.1 UPnP/1.0 DLNADOC/1.5 MediaBrowser/3.0.5366.22005,NTS=ssdp:alive,NT=urn:schemas-upnp-org:device:MediaServer:1,USN=uuid:db1133ce897e68a99a1f5d381dc17066::urn:schemas-upnp-org:device:MediaServer:1
    2014-09-17 10:15:58.7656 Debug - Dlna: NOTIFY Device message received from 192.168.1.112:1900. Headers: HOST=239.255.255.250:1900,CACHE-CONTROL=max-age = 600,LOCATION=http://192.168.1.125:8096/mediabrow...d9c78345f822/description.xml,SERVER=WIN32/6.1 UPnP/1.0 DLNADOC/1.5 MediaBrowser/3.0.5366.22005,NTS=ssdp:alive,NT=upnp:rootdevice,USN=uuid:69251f6cc4ad96a5320ed9c78345f822::upnp:rootdevice
    2014-09-17 10:15:58.7656 Debug - Dlna: NOTIFY Device message received from 192.168.1.125:1900. Headers: HOST=239.255.255.250:1900,CACHE-CONTROL=max-age = 600,LOCATION=http://192.168.1.125:8096/mediabrow...d9c78345f822/description.xml,SERVER=WIN32/6.1 UPnP/1.0 DLNADOC/1.5 MediaBrowser/3.0.5366.22005,NTS=ssdp:alive,NT=upnp:rootdevice,USN=uuid:69251f6cc4ad96a5320ed9c78345f822::upnp:rootdevice
    2014-09-17 10:15:58.7656 Debug - Dlna: uuid:69251f6cc4ad96a5320ed9c78345f822::urn:schemas-upnp-org:device:MediaServer:1 said alive
    2014-09-17 10:15:58.7832 Debug - Dlna: uuid:69251f6cc4ad96a5320ed9c78345f822::urn:schemas-upnp-org:service:ContentDirectory:1 said alive
    2014-09-17 10:15:58.7832 Debug - Dlna: NOTIFY Device message received from 192.168.1.112:1900. Headers: HOST=239.255.255.250:1900,CACHE-CONTROL=max-age = 600,LOCATION=http://192.168.1.125:8096/mediabrow...d9c78345f822/description.xml,SERVER=WIN32/6.1 UPnP/1.0 DLNADOC/1.5 MediaBrowser/3.0.5366.22005,NTS=ssdp:alive,NT=urn:schemas-upnp-org:device:MediaServer:1,USN=uuid:69251f6cc4ad96a5320ed9c78345f822::urn:schemas-upnp-org:device:MediaServer:1
    2014-09-17 10:15:58.7832 Debug - Dlna: NOTIFY Device message received from 192.168.1.112:1900. Headers: HOST=239.255.255.250:1900,CACHE-CONTROL=max-age = 600,LOCATION=http://192.168.1.125:8096/mediabrow...d9c78345f822/description.xml,SERVER=WIN32/6.1 UPnP/1.0 DLNADOC/1.5 MediaBrowser/3.0.5366.22005,NTS=ssdp:alive,NT=urn:schemas-upnp-org:service:ContentDirectory:1,USN=uuid:69251f6cc4ad96a5320ed9c78345f822::urn:schemas-upnp-org:service:ContentDirectory:1
    2014-09-17 10:15:58.7832 Debug - Dlna: uuid:69251f6cc4ad96a5320ed9c78345f822 said alive
    2014-09-17 10:15:58.7832 Debug - Dlna: NOTIFY Device message received from 192.168.1.125:1900. Headers: HOST=239.255.255.250:1900,CACHE-CONTROL=max-age = 600,LOCATION=http://192.168.1.125:8096/mediabrow...d9c78345f822/description.xml,SERVER=WIN32/6.1 UPnP/1.0 DLNADOC/1.5 MediaBrowser/3.0.5366.22005,NTS=ssdp:alive,NT=urn:schemas-upnp-org:device:MediaServer:1,USN=uuid:69251f6cc4ad96a5320ed9c78345f822::urn:schemas-upnp-org:device:MediaServer:1
    2014-09-17 10:15:58.7832 Debug - Dlna: NOTIFY Device message received from 192.168.1.112:1900. Headers: HOST=239.255.255.250:1900,CACHE-CONTROL=max-age = 600,LOCATION=http://192.168.1.125:8096/mediabrow...d9c78345f822/description.xml,SERVER=WIN32/6.1 UPnP/1.0 DLNADOC/1.5 MediaBrowser/3.0.5366.22005,NTS=ssdp:alive,NT=uuid:69251f6cc4ad96a5320ed9c78345f822,USN=uuid:69251f6cc4ad96a5320ed9c78345f822
    2014-09-17 10:15:58.7968 Debug - Dlna: NOTIFY Device message received from 192.168.1.125:1900. Headers: HOST=239.255.255.250:1900,CACHE-CONTROL=max-age = 600,LOCATION=http://192.168.1.125:8096/mediabrow...d9c78345f822/description.xml,SERVER=WIN32/6.1 UPnP/1.0 DLNADOC/1.5 MediaBrowser/3.0.5366.22005,NTS=ssdp:alive,NT=urn:schemas-upnp-org:service:ContentDirectory:1,USN=uuid:69251f6cc4ad96a5320ed9c78345f822::urn:schemas-upnp-org:service:ContentDirectory:1
    2014-09-17 10:15:58.7968 Debug - Dlna: NOTIFY Device message received from 192.168.1.125:1900. Headers: HOST=239.255.255.250:1900,CACHE-CONTROL=max-age = 600,LOCATION=http://192.168.1.125:8096/mediabrow...d9c78345f822/description.xml,SERVER=WIN32/6.1 UPnP/1.0 DLNADOC/1.5 MediaBrowser/3.0.5366.22005,NTS=ssdp:alive,NT=uuid:69251f6cc4ad96a5320ed9c78345f822,USN=uuid:69251f6cc4ad96a5320ed9c78345f822
    2014-09-17 10:15:58.7968 Debug - Dlna: NOTIFY Device message received from 192.168.1.112:49497. Headers: HOST=239.255.255.250:1900,CACHE-CONTROL=max-age = 600,LOCATION=http://192.168.1.112:8096/mediabrow...5d381dc17066/description.xml,SERVER=WIN32/6.1 UPnP/1.0 DLNADOC/1.5 MediaBrowser/3.0.5366.22005,NTS=ssdp:alive,NT=urn:schemas-upnp-org:device:MediaServer:1,USN=uuid:db1133ce897e68a99a1f5d381dc17066::urn:schemas-upnp-org:device:MediaServer:1
    2014-09-17 10:15:58.7968 Debug - Dlna: NOTIFY * HTTP/1.1
    HOST: 239.255.255.250:1900
    CACHE-CONTROL: max-age = 600
    LOCATION: http://192.168.1.112:8096/mediabrowser/dlna/db1133ce897e68a99a1f5d381dc17066/description.xml
    SERVER: WIN32/6.1 UPnP/1.0 DLNADOC/1.5 MediaBrowser/3.0.5366.22005
    NTS: ssdp:alive
    NT: urn:schemas-upnp-org:service:ContentDirectory:1
    USN: uuid:db1133ce897e68a99a1f5d381dc17066::urn:schemas-upnp-org:service:ContentDirectory:1

    ����������������������������������������������������������������������������������������������������������������������������������������������������������������������������������������������������������������������������������������������������������������������������������������������������������������������������������������������������������������������������������������������������������������������������������������������������������������������������������������������������������������������������������������������������������������������������������������������������������������������������������
    2014-09-17 10:15:58.7968 Debug - Dlna: NOTIFY message received from 192.168.1.112:49498 on 0.0.0.0:1900. Headers: HOST=239.255.255.250:1900,CACHE-CONTROL=max-age = 600,LOCATION=http://192.168.1.112:8096/mediabrow...5d381dc17066/description.xml,SERVER=WIN32/6.1 UPnP/1.0 DLNADOC/1.5 MediaBrowser/3.0.5366.22005,NTS=ssdp:alive,NT=urn:schemas-upnp-org:service:ContentDirectory:1,USN=uuid:db1133ce897e68a99a1f5d381dc17066::urn:schemas-upnp-org:service:ContentDirectory:1
    2014-09-17 10:15:58.8339 Debug - Dlna: NOTIFY Device message received from 192.168.1.112:49498. Headers: HOST=239.255.255.250:1900,CACHE-CONTROL=max-age = 600,LOCATION=http://192.168.1.112:8096/mediabrow...5d381dc17066/description.xml,SERVER=WIN32/6.1 UPnP/1.0 DLNADOC/1.5 MediaBrowser/3.0.5366.22005,NTS=ssdp:alive,NT=urn:schemas-upnp-org:service:ContentDirectory:1,USN=uuid:db1133ce897e68a99a1f5d381dc17066::urn:schemas-upnp-org:service:ContentDirectory:1
    2014-09-17 10:15:58.8339 Debug - Dlna: NOTIFY * HTTP/1.1
    HOST: 239.255.255.250:1900
    CACHE-CONTROL: max-age = 600
    LOCATION: http://192.168.1.112:8096/mediabrowser/dlna/db1133ce897e68a99a1f5d381dc17066/description.xml
    SERVER: WIN32/6.1 UPnP/1.0 DLNADOC/1.5 MediaBrowser/3.0.5366.22005
    NTS: ssdp:alive
    NT: uuid:db1133ce897e68a99a1f5d381dc17066
    USN: uuid:db1133ce897e68a99a1f5d381dc17066

    ���������������������������������������������������������������������������������������������������������������������������������������������������������������������������������������������������������������������������������������������������������������������������������������������������������������������������������������������������������������������������������������������������������������������������������������������������������������������������������������������������������������������������������������������������������������������������������������������������������������������������������������������������������������������������������������������
    2014-09-17 10:15:58.8339 Debug - Dlna: NOTIFY message received from 192.168.1.112:49499 on 0.0.0.0:1900. Headers: HOST=239.255.255.250:1900,CACHE-CONTROL=max-age = 600,LOCATION=http://192.168.1.112:8096/mediabrow...5d381dc17066/description.xml,SERVER=WIN32/6.1 UPnP/1.0 DLNADOC/1.5 MediaBrowser/3.0.5366.22005,NTS=ssdp:alive,NT=uuid:db1133ce897e68a99a1f5d381dc17066,USN=uuid:db1133ce897e68a99a1f5d381dc17066
    2014-09-17 10:15:58.8632 Debug - Dlna: NOTIFY Device message received from 192.168.1.112:49499. Headers: HOST=239.255.255.250:1900,CACHE-CONTROL=max-age = 600,LOCATION=http://192.168.1.112:8096/mediabrow...5d381dc17066/description.xml,SERVER=WIN32/6.1 UPnP/1.0 DLNADOC/1.5 MediaBrowser/3.0.5366.22005,NTS=ssdp:alive,NT=uuid:db1133ce897e68a99a1f5d381dc17066,USN=uuid:db1133ce897e68a99a1f5d381dc17066
    2014-09-17 10:15:58.8632 Debug - Dlna: NOTIFY * HTTP/1.1
    HOST: 239.255.255.250:1900
    CACHE-CONTROL: max-age = 600
    LOCATION: http://192.168.1.125:8096/mediabrowser/dlna/69251f6cc4ad96a5320ed9c78345f822/description.xml
    SERVER: WIN32/6.1 UPnP/1.0 DLNADOC/1.5 MediaBrowser/3.0.5366.22005
    NTS: ssdp:alive
    NT: upnp:rootdevice
    USN: uuid:69251f6cc4ad96a5320ed9c78345f822::upnp:rootdevice

    ��������������������������������������������������������������������������������������������������������������������������������������������������������������������������������������������������������������������������������������������������������������������������������������������������������������������������������������������������������������������������������������������������������������������������������������������������������������������������������������������������������������������������������������������������������������������������������������������������������������������������������������������������������������������������������������������������
    2014-09-17 10:15:58.8632 Debug - Dlna: NOTIFY message received from 192.168.1.125:49500 on 0.0.0.0:1900. Headers: HOST=239.255.255.250:1900,CACHE-CONTROL=max-age = 600,LOCATION=http://192.168.1.125:8096/mediabrow...d9c78345f822/description.xml,SERVER=WIN32/6.1 UPnP/1.0 DLNADOC/1.5 MediaBrowser/3.0.5366.22005,NTS=ssdp:alive,NT=upnp:rootdevice,USN=uuid:69251f6cc4ad96a5320ed9c78345f822::upnp:rootdevice
    2014-09-17 10:15:58.8925 Debug - Dlna: NOTIFY Device message received from 192.168.1.125:49500. Headers: HOST=239.255.255.250:1900,CACHE-CONTROL=max-age = 600,LOCATION=http://192.168.1.125:8096/mediabrow...d9c78345f822/description.xml,SERVER=WIN32/6.1 UPnP/1.0 DLNADOC/1.5 MediaBrowser/3.0.5366.22005,NTS=ssdp:alive,NT=upnp:rootdevice,USN=uuid:69251f6cc4ad96a5320ed9c78345f822::upnp:rootdevice
    2014-09-17 10:15:58.8925 Debug - Dlna: NOTIFY * HTTP/1.1
    HOST: 239.255.255.250:1900
    CACHE-CONTROL: max-age = 600
    LOCATION: http://192.168.1.125:8096/mediabrowser/dlna/69251f6cc4ad96a5320ed9c78345f822/description.xml
    SERVER: WIN32/6.1 UPnP/1.0 DLNADOC/1.5 MediaBrowser/3.0.5366.22005
    NTS: ssdp:alive
    NT: urn:schemas-upnp-org:device:MediaServer:1
    USN: uuid:69251f6cc4ad96a5320ed9c78345f822::urn:schemas-upnp-org:device:MediaServer:1

    ����������������������������������������������������������������������������������������������������������������������������������������������������������������������������������������������������������������������������������������������������������������������������������������������������������������������������������������������������������������������������������������������������������������������������������������������������������������������������������������������������������������������������������������������������������������������������������������������������������������������������������������������
    2014-09-17 10:15:58.8925 Debug - Dlna: NOTIFY message received from 192.168.1.125:49501 on 0.0.0.0:1900. Headers: HOST=239.255.255.250:1900,CACHE-CONTROL=max-age = 600,LOCATION=http://192.168.1.125:8096/mediabrow...d9c78345f822/description.xml,SERVER=WIN32/6.1 UPnP/1.0 DLNADOC/1.5 MediaBrowser/3.0.5366.22005,NTS=ssdp:alive,NT=urn:schemas-upnp-org:device:MediaServer:1,USN=uuid:69251f6cc4ad96a5320ed9c78345f822::urn:schemas-upnp-org:device:MediaServer:1
    2014-09-17 10:15:58.9208 Debug - Dlna: NOTIFY Device message received from 192.168.1.125:49501. Headers: HOST=239.255.255.250:1900,CACHE-CONTROL=max-age = 600,LOCATION=http://192.168.1.125:8096/mediabrow...d9c78345f822/description.xml,SERVER=WIN32/6.1 UPnP/1.0 DLNADOC/1.5 MediaBrowser/3.0.5366.22005,NTS=ssdp:alive,NT=urn:schemas-upnp-org:device:MediaServer:1,USN=uuid:69251f6cc4ad96a5320ed9c78345f822::urn:schemas-upnp-org:device:MediaServer:1
    2014-09-17 10:15:58.9238 Debug - Dlna: NOTIFY * HTTP/1.1
    HOST: 239.255.255.250:1900
    CACHE-CONTROL: max-age = 600
    LOCATION: http://192.168.1.125:8096/mediabrowser/dlna/69251f6cc4ad96a5320ed9c78345f822/description.xml
    SERVER: WIN32/6.1 UPnP/1.0 DLNADOC/1.5 MediaBrowser/3.0.5366.22005
    NTS: ssdp:alive
    NT: urn:schemas-upnp-org:service:ContentDirectory:1
    USN: uuid:69251f6cc4ad96a5320ed9c78345f822::urn:schemas-upnp-org:service:ContentDirectory:1

    ����������������������������������������������������������������������������������������������������������������������������������������������������������������������������������������������������������������������������������������������������������������������������������������������������������������������������������������������������������������������������������������������������������������������������������������������������������������������������������������������������������������������������������������������������������������������������������������������������������������������������������
    2014-09-17 10:15:58.9238 Debug - Dlna: NOTIFY message received from 192.168.1.125:49502 on 0.0.0.0:1900. Headers: HOST=239.255.255.250:1900,CACHE-CONTROL=max-age = 600,LOCATION=http://192.168.1.125:8096/mediabrow...d9c78345f822/description.xml,SERVER=WIN32/6.1 UPnP/1.0 DLNADOC/1.5 MediaBrowser/3.0.5366.22005,NTS=ssdp:alive,NT=urn:schemas-upnp-org:service:ContentDirectory:1,USN=uuid:69251f6cc4ad96a5320ed9c78345f822::urn:schemas-upnp-org:service:ContentDirectory:1
    2014-09-17 10:15:58.9501 Debug - Dlna: NOTIFY Device message received from 192.168.1.125:49502. Headers: HOST=239.255.255.250:1900,CACHE-CONTROL=max-age = 600,LOCATION=http://192.168.1.125:8096/mediabrow...d9c78345f822/description.xml,SERVER=WIN32/6.1 UPnP/1.0 DLNADOC/1.5 MediaBrowser/3.0.5366.22005,NTS=ssdp:alive,NT=urn:schemas-upnp-org:service:ContentDirectory:1,USN=uuid:69251f6cc4ad96a5320ed9c78345f822::urn:schemas-upnp-org:service:ContentDirectory:1
    2014-09-17 10:15:58.9501 Debug - Dlna: NOTIFY * HTTP/1.1
    HOST: 239.255.255.250:1900
    CACHE-CONTROL: max-age = 600
    LOCATION: http://192.168.1.125:8096/mediabrowser/dlna/69251f6cc4ad96a5320ed9c78345f822/description.xml
    SERVER: WIN32/6.1 UPnP/1.0 DLNADOC/1.5 MediaBrowser/3.0.5366.22005
    NTS: ssdp:alive
    NT: uuid:69251f6cc4ad96a5320ed9c78345f822
    USN: uuid:69251f6cc4ad96a5320ed9c78345f822

    ���������������������������������������������������������������������������������������������������������������������������������������������������������������������������������������������������������������������������������������������������������������������������������������������������������������������������������������������������������������������������������������������������������������������������������������������������������������������������������������������������������������������������������������������������������������������������������������������������������������������������������������������������������������������������������������������
    2014-09-17 10:15:58.9550 Debug - Dlna: NOTIFY message received from 192.168.1.125:49503 on 0.0.0.0:1900. Headers: HOST=239.255.255.250:1900,CACHE-CONTROL=max-age = 600,LOCATION=http://192.168.1.125:8096/mediabrow...d9c78345f822/description.xml,SERVER=WIN32/6.1 UPnP/1.0 DLNADOC/1.5 MediaBrowser/3.0.5366.22005,NTS=ssdp:alive,NT=uuid:69251f6cc4ad96a5320ed9c78345f822,USN=uuid:69251f6cc4ad96a5320ed9c78345f822
    2014-09-17 10:15:58.9794 Debug - Dlna: NOTIFY Device message received from 192.168.1.125:49503. Headers: HOST=239.255.255.250:1900,CACHE-CONTROL=max-age = 600,LOCATION=http://192.168.1.125:8096/mediabrow...d9c78345f822/description.xml,SERVER=WIN32/6.1 UPnP/1.0 DLNADOC/1.5 MediaBrowser/3.0.5366.22005,NTS=ssdp:alive,NT=uuid:69251f6cc4ad96a5320ed9c78345f822,USN=uuid:69251f6cc4ad96a5320ed9c78345f822
    2014-09-17 10:16:00.3173 Debug - HttpServer: HTTP GET http://localhost:8096/mediabrowser/System/Logs/Log?name=server-63546545739.txt
    Ip: 127.0.0.1:2124. Headers: Host=localhost:8096,Connection=keep-alive,Accept=text/html,application/xhtml+xml,application/xml;q=0.9,image/webp,*/*;q=0.8,User-Agent=Mozilla/5.0 (Windows NT 6.1; WOW64) AppleWebKit/537.36 (KHTML, like Gecko) Chrome/31.0.1650.48 Safari/537.36,DNT=1,Accept-Encoding=gzip,deflate,sdch,Accept-Language=en-US,en;q=0.8
     

    Jeffrey Story

    New Member
    September 15, 2014
    4
    0
    55
    Home Country
    United States of America United States of America
    Wrong again 318 movies 1 plays, mind you the other 4/5 mp4's I was too lazy to re-encode do not work..

    General
    Complete name : Z:\Coherence\Coherence.mp4
    Format : MPEG-4
    Format profile : Base Media
    Codec ID : isom
    File size : 1.24 GiB
    Duration : 1h 27mn
    Overall bit rate mode : Variable
    Overall bit rate : 2 026 Kbps
    Encoded date : UTC 2014-09-13 19:43:10
    Tagged date : UTC 2014-09-13 19:43:10

    Video
    ID : 1
    Format : AVC
    Format/Info : Advanced Video Codec
    Format profile : High@L4.1
    Format settings, CABAC : Yes
    Format settings, ReFrames : 4 frames
    Codec ID : avc1
    Codec ID/Info : Advanced Video Coding
    Duration : 1h 27mn
    Bit rate : 1 928 Kbps
    Maximum bit rate : 7 323 Kbps
    Width : 1 920 pixels
    Height : 816 pixels
    Display aspect ratio : 2.35:1
    Frame rate mode : Constant
    Frame rate : 24.000 fps
    Color space : YUV
    Chroma subsampling : 4:2:0
    Bit depth : 8 bits
    Scan type : Progressive
    Bits/(Pixel*Frame) : 0.051
    Stream size : 1.18 GiB (95%)
    Writing library : x264 core 142 r2409 d6b4e63
    Encoding settings : cabac=1 / ref=4 / deblock=1:-1:-1 / analyse=0x3:0x133 / me=umh / subme=9 / psy=1 / psy_rd=1.00:0.15 / mixed_ref=1 / me_range=24 / chroma_me=1 / trellis=2 / 8x8dct=1 / cqm=0 / deadzone=21,11 / fast_pskip=0 / chroma_qp_offset=-3 / threads=60 / lookahead_threads=5 / sliced_threads=0 / nr=0 / decimate=1 / interlaced=0 / bluray_compat=0 / constrained_intra=0 / bframes=3 / b_pyramid=2 / b_adapt=2 / b_bias=0 / direct=3 / weightb=1 / open_gop=0 / weightp=2 / keyint=250 / keyint_min=24 / scenecut=40 / intra_refresh=0 / rc_lookahead=60 / rc=2pass / mbtree=1 / bitrate=1928 / ratetol=1.0 / qcomp=0.60 / qpmin=0 / qpmax=69 / qpstep=4 / cplxblur=20.0 / qblur=0.5 / vbv_maxrate=31250 / vbv_bufsize=31250 / nal_hrd=none / filler=0 / ip_ratio=1.40 / aq=1:1.00
    Encoded date : UTC 2014-09-13 19:43:10
    Tagged date : UTC 2014-09-13 19:43:19
    Color primaries : BT.709
    Matrix coefficients : BT.709

    Audio
    ID : 2
    Format : AAC
    Format/Info : Advanced Audio Codec
    Format profile : LC
    Codec ID : 40
    Duration : 1h 27mn
    Bit rate mode : Variable
    Bit rate : 93.8 Kbps
    Maximum bit rate : 103 Kbps
    Channel(s) : 2 channels
    Channel positions : Front: L R
    Sampling rate : 48.0 KHz
    Compression mode : Lossy
    Stream size : 59.0 MiB (5%)
    Language : English
    Encoded date : UTC 2014-09-13 19:43:18
    Tagged date : UTC 2014-09-13 19:43:19
     

    Jeffrey Story

    New Member
    September 15, 2014
    4
    0
    55
    Home Country
    United States of America United States of America
    Dohhh!!! Looks like it, I downloaded them both at the same and guess I got them mixed up, thanks for your time btw if your using MEDIA BROWSER you need to create a custom profile for the dish hopper /slinks away
     

    Users who are viewing this thread

    Similar threads

    Many people found the Lentoid decoder better optimised than LAV for software decoding. If you want to try it, download it from the link below, run reg.bat as an admin to install it and change the HEVC Video settings in MediaPortal Configuration/Codecs and Renderer...
    Many people found the Lentoid decoder better optimised than LAV for software decoding. If you want to try it, download it from the...
    For some unknown reason I can't play HEVC encoded video with MP1 on my system. I have tried every trick I know, but nothing works...
    Replies
    10
    Views
    479
    That seems likely. I tried the h264 ts cutter (found here) and it sort of works with HEVC/x265. The Preview has problems decoding the image, but if you know the area where to cut you can find a place. I had to change the settings (as a dialogbox suggested) to I-Frames as Cut-In-Points and All-Frames as Cut-Out-Points or else the...
    That seems likely. I tried the h264 ts cutter (found here) and it sort of works with HEVC/x265. The Preview has problems decoding...
    Hi there, I have a strange problem with mkvmerge when processing some recordings from german DVB-T2. So what's happening: I...
    Replies
    2
    Views
    750
    Ok I could solve my problem by myself. The logs said that the delimiter of that song is not in text form. Although it was already in text form and I deleted the music database, the title information was still not available. I ripped the song again and now it works. I think that something went wrong the first time.
    Ok I could solve my problem by myself. The logs said that the delimiter of that song is not in text form. Although it was already...
    Hi, After the update from 1.25 to 1.26 the replay gain functionality appears to be broken. I had no sound on all audio files (TV...
    Replies
    12
    Views
    1K
    Been testing and mostly solved by using Automatic - yet this morning the TV recording of BBC1 Andrew Marr went out of sync. Windows 7 worked lovely windows 10 on Intel NUC seems to have all sorts of issues (Mostly Windows 10 - MS deciding that it knows best and I got a update/reboot when I'd told it not too!)
    Been testing and mostly solved by using Automatic - yet this morning the TV recording of BBC1 Andrew Marr went out of sync...
    Have an issue with several AAC 2.0 files going out of sync Video plays fine, audio gets delayed. that is video is ahead of sound -...
    Replies
    2
    Views
    2K
    Sorry you can't play my files. Basically they are broadcast as 3 x Mpeg-Audio 2.0 tracks (one track has left/right, one has center/LFE, and one has surround left/right). So the only way to get them to "usable" is to convert them...DTS-HDMA is the best choice since it keeps it "lossless". While it's still a transcode, it's a transcode...
    Sorry you can't play my files. Basically they are broadcast as 3 x Mpeg-Audio 2.0 tracks (one track has left/right, one has...
    I have some .TS files that wouldn't play in MediaPortal. The solution was to check the box in MediaPortal Configuration that says...
    Replies
    9
    Views
    2K
    Top Bottom