[confirm] - AuDio : .Cue + flac File, track are not showed in Title view | Page 3

Discussion in '1.8.x' started by ajs, July 24, 2014.

  1. ajs
    • Team MediaPortal

    ajs Development Group

    Joined:
    February 29, 2008
    Messages:
    8,610
    Likes Received:
    2,643
    Gender:
    Male
    Occupation:
    IT
    Location:
    Kyiv
    Ratings:
    +4,593 / 29
    Home Country:
    Ukraine Ukraine
    Show System Specs
    I add .cue to Music section, delete music database, rescan, and get:
    20-33-23.png
    cue in attach, dir list:
    Code (Text):
    1. 28.06.2014  13:09       110 944 914 Roxette - The Pop Hits (Bonus Disc).flac
    2. 28.06.2014  13:11             2 467 Roxette - The Pop Hits.cue
    3. 28.06.2014  13:08       437 894 523 Roxette - The Pop Hits.flac
    4.  
    [DOUBLEPOST=1407175760][/DOUBLEPOST]And ...
    21-06-52.png
    Code (Text):
    1. 28.06.2014  13:08       441 748 123 Roxette - Charm School (Bonus Live Disc).flac
    2. 28.06.2014  13:12             3 223 Roxette - Charm School.cue
    3. 28.06.2014  13:08       279 169 634 Roxette - Charm School.flac
    4.  



     

    Attached Files:

  2. Google AdSense Guest Advertisement



    to hide all adverts.
  3. azzuro
    • Team MediaPortal

    azzuro Test Group

    Joined:
    May 10, 2007
    Messages:
    8,376
    Likes Received:
    2,464
    Occupation:
    technician HVAC
    Location:
    France - IDF
    Ratings:
    +4,119 / 13
    Home Country:
    France France
    Show System Specs
    hello, ajs,
    i try to understand, both are added to DB
    but only "Roxette - the pop list" is added correctly ?
    and on Shareview, you are both issue ?
     
  4. ajs
    • Team MediaPortal

    ajs Development Group

    Joined:
    February 29, 2008
    Messages:
    8,610
    Likes Received:
    2,643
    Gender:
    Male
    Occupation:
    IT
    Location:
    Kyiv
    Ratings:
    +4,593 / 29
    Home Country:
    Ukraine Ukraine
    Show System Specs
    Yes.

    No, First disc corectly, Second disk not correctly (one track on second disc)

    Screenshots from Artists view (On share view, forgot to check, but as I remember it was good, I can see at night.)
     
  5. azzuro
    • Team MediaPortal

    azzuro Test Group

    Joined:
    May 10, 2007
    Messages:
    8,376
    Likes Received:
    2,464
    Occupation:
    technician HVAC
    Location:
    France - IDF
    Ratings:
    +4,119 / 13
    Home Country:
    France France
    Show System Specs
    i can mean , only the second .cue is broken ...
     
  6. ajs
    • Team MediaPortal

    ajs Development Group

    Joined:
    February 29, 2008
    Messages:
    8,610
    Likes Received:
    2,643
    Gender:
    Male
    Occupation:
    IT
    Location:
    Kyiv
    Ratings:
    +4,593 / 29
    Home Country:
    Ukraine Ukraine
    Show System Specs
    Roxette - The Pop Hits.cue - 2 discs in one CUE (first disc Ok, Second - not Ok)
    Roxette - Charm School.cue - 2 discs in one CUE (all discs not OK).
    Before that, I checked their catalog mode. It was all good, check it again today.
     
  7. azzuro
    • Team MediaPortal

    azzuro Test Group

    Joined:
    May 10, 2007
    Messages:
    8,376
    Likes Received:
    2,464
    Occupation:
    technician HVAC
    Location:
    France - IDF
    Ratings:
    +4,119 / 13
    Home Country:
    France France
    Show System Specs
  8. azzuro
    • Team MediaPortal

    azzuro Test Group

    Joined:
    May 10, 2007
    Messages:
    8,376
    Likes Received:
    2,464
    Occupation:
    technician HVAC
    Location:
    France - IDF
    Ratings:
    +4,119 / 13
    Home Country:
    France France
    Show System Specs
    your cue are different : the second contain
    "INDEX 00 " for each track .. not available on the 1st.
    "CATALOG" is also missing. but i think not related, only for information.

    but i'm pretty sure, 1 file = 1 cue, so you must have 2 cue files in your folder. for each name file
     
  9. ajs
    • Team MediaPortal

    ajs Development Group

    Joined:
    February 29, 2008
    Messages:
    8,610
    Likes Received:
    2,643
    Gender:
    Male
    Occupation:
    IT
    Location:
    Kyiv
    Ratings:
    +4,593 / 29
    Home Country:
    Ukraine Ukraine
    Show System Specs
    From WIKI:
    Code (Text):
    1. INDEX
    2. Indicates an index (position) within the current FILE. The position is specified in mm:ss:ff (minute-second-frame) format. There are 75 such frames per second of audio. In the context of cue sheets, "frames" refer to CD sectors, despite a different, lower-level structure in CDs also being known as frames.[5] INDEX 01 is required and denotes the start of the track, while INDEX 00 is optional and denotes the pregap. The pregap of Track 1 is used for Hidden Track One Audio (HTOA). Optional higher-numbered indexes (02 through 99) are also allowed.
    Yes.

    From CUE-Examples:
    Code (Text):
    1. FILE "C:\TRACK1.WAV" WAVE
    2.   TRACK 01 AUDIO
    3.     INDEX 01 00:00:00
    4.   TRACK 02 AUDIO
    5.     INDEX 01 05:50:65
    6.   TRACK 03 AUDIO
    7.     INDEX 01 09:47:50
    8.   TRACK 04 AUDIO
    9.     INDEX 01 15:12:53
    10. FILE "C:\TRACK2.WAV" WAVE
    11.   TRACK 05 AUDIO
    12.     INDEX 01 00:00:00 (*1)
    13.   TRACK 06 AUDIO
    14.     INDEX 01 02:31:40
    15.   TRACK 07 AUDIO
    16.     INDEX 01 06:56:13
    17.   TRACK 08 AUDIO
    18.     INDEX 01 10:06:25
     
  10. azzuro
    • Team MediaPortal

    azzuro Test Group

    Joined:
    May 10, 2007
    Messages:
    8,376
    Likes Received:
    2,464
    Occupation:
    technician HVAC
    Location:
    France - IDF
    Ratings:
    +4,119 / 13
    Home Country:
    France France
    Show System Specs
    Your
    Code (Text):
    1.   TRACK 02 AUDIO
    2.     TITLE "No One Makes It On Her Own"
    3.     PERFORMER "Roxette"
    4.     ISRC SEVEV1000102
    5.     INDEX 00 02:44:25
    6.     INDEX 01 02:46:11
    7.   TRACK 03 AUDIO
    8.     TITLE "She's Got Nothing On (But The Radio)"
    9.     PERFORMER "Roxette"
    10.     ISRC SEVEV1000103
    11.     INDEX 00 06:29:03
    12.     INDEX 01 06:30:09
    you have always INDEX 00. maybe it's the bug ...

    About CUE wiki, and MP wiki, it's 2 different world.
    MP add the support of Cue, but don't want say, it's 100% compatible ( and AGREED) CUE format.

    @hwahrmann : can you certify than 1 cue = 1 file ?
     
  11. ajs
    • Team MediaPortal

    ajs Development Group

    Joined:
    February 29, 2008
    Messages:
    8,610
    Likes Received:
    2,643
    Gender:
    Male
    Occupation:
    IT
    Location:
    Kyiv
    Ratings:
    +4,593 / 29
    Home Country:
    Ukraine Ukraine
    Show System Specs
    I dont know :(

    :cool::coffee:
     

Users Viewing Thread (Users: 0, Guests: 0)

  1. This site uses cookies to help personalise content, tailor your experience and to keep you logged in if you register.
    By continuing to use this site, you are consenting to our use of cookies.
    Dismiss Notice
  • About The Project

    The vision of the MediaPortal project is to create a free open source media centre application, which supports all advanced media centre functions, and is accessible to all Windows users.

    In reaching this goal we are working every day to make sure our software is one of the best.

             

  • Support MediaPortal!

    The team works very hard to make sure the community is running the best HTPC-software. We give away MediaPortal for free but hosting and software is not for us.

    Care to support our work with a few bucks? We'd really appreciate it!