[MP1.11 TV Server] Can't scan Fritz! DVB-C Wlan Repeater M3U | Page 4

Discussion in 'Installation, configuration support' started by Nervesagent, May 14, 2015.

Thread Status:
Not open for further replies.
  1. Nervesagent

    Nervesagent Portal Pro

    Joined:
    February 26, 2014
    Messages:
    150
    Likes Received:
    7
    Gender:
    Male
    Ratings:
    +14 / 0
    Home Country:
    Denmark Denmark
    This is the logs when I scan 1 channel on the fritz using the standard MePo iptv filter (not the special merged iptv & url source spitter).
    It fails. Why? not MPEG2 encapsulated?
    Using MePo 1.12 final


     
  2. Google AdSense Guest Advertisement



    to hide all adverts.
  3. mm1352000
    • Team MediaPortal

    mm1352000 Development Group

    Joined:
    September 1, 2008
    Messages:
    21,541
    Likes Received:
    4,752
    Ratings:
    +8,221 / 17
    Home Country:
    New Zealand New Zealand
    [2015-08-13 17:04:53,118] [Log ] [22 ] [INFO ] - dvbip: Tune:DVBIP:tv: RTL test Freq:0 ONID:-1 TSID:-1 SID:-1 PMT:0xFFFFFFFF FTA:False LCN:10000 Url:rtsp://192.168.1.65:554/?freq=330&bw=8&msys=dvbc&mtype=256qam&sr=6900&specinv=0&pids=0,16,17,18,20,2600,2601,2611,2701
    ...
    [2015-08-13 17:05:05,795] [Log ] [22 ] [INFO ] - dvb: RunGraph returns: 0xFFFFFFFE

    The error code - 0xFFFFFFFE - means failed to receive data.
     
  4. Nervesagent

    Nervesagent Portal Pro

    Joined:
    February 26, 2014
    Messages:
    150
    Likes Received:
    7
    Gender:
    Male
    Ratings:
    +14 / 0
    Home Country:
    Denmark Denmark
    That's weird. ffmpeg doesnt seem to have a problem with it.
    All I do to get this stream working in MePo is a ffmpeg "input" -vcodec copy -acodec copy -f mpegts

    Could it be that MePo is expecting more than just an URL? What I mean is that since this is a network tuner, I think that MePo should have enough info with just a stream url. However, from my other network tuner (Anysee N7) I've learned that there may be more to it. There's stuff like Transport Id in the streams that can contain EPG data... My question is: could it be that even though scanning does not work, it's possible to get this stream working in MediaPortal by adding it manually and setting the right id's?
    The Fritz is known to be not completely compliant to the SAT>IP standard.

    This is what ffmpeg finds in one example stream from the Fritz Dvb-C network tuner:
    There are multiple channels in this Transport stream. How do the program numbers translate to MePo?
    I like learning about this kind of stuff and I hope to be more of a contributor to MediaPortal in the future.

    Code (Text):
    1.  
    2. Input #0, rtsp, from 'rtsp://192.168.1.65:554/?freq=450&bw=8&msys=dvbc&mtype=256
    3. qam&sr=6900&specinv=0&pids=0,16,17,18,20,3800,3801,3811,3901':
    4.   Metadata:
    5.   title  : SatIPServer:1 2
    6.   Duration: N/A, start: 19336.576167, bitrate: N/A
    7.   Program 19441
    8.   Metadata:
    9.   service_name  : FOX Sports 1 Eredivisie HD
    10.   service_provider: Ziggo
    11.   Program 19442
    12.   Metadata:
    13.   service_name  : Veronica HD / Disney XD
    14.   service_provider: Ziggo
    15.   Program 19443
    16.   Metadata:
    17.   service_name  : Nick Hits
    18.   service_provider: Ziggo
    19.   Program 19444
    20.   Metadata:
    21.   service_name  : Boomerang
    22.   service_provider: Ziggo
    23.   Program 19446
    24.   Metadata:
    25.   service_name  : CI
    26.   service_provider: Ziggo
    27.   Program 19447
    28.   Metadata:
    29.   service_name  : CNN
    30.   service_provider: Ziggo
    31.   Stream #0:2: Video: mpeg2video (Main) ([2][0][0][0] / 0x0002), yuv420p(tv),
    32. 544x576 [SAR 32:17 DAR 16:9], max. 15000 kb/s, 25 fps, 25 tbr, 90k tbn, 50 tbc
    33.   Stream #0:0(eng): Audio: mp2 ([4][0][0][0] / 0x0004), 48000 Hz, stereo, s16p
    34. , 192 kb/s
    35.   Stream #0:1(eng): Subtitle: dvb_teletext ([6][0][0][0] / 0x0006)
    36.   Program 30441
    37.   Metadata:
    38.   service_name  : Ziggo Live Events FOX Sports
    39.   service_provider: Ziggo
    40. Output #0, mpegts, to 'pipe:':
    41.   Metadata:
    42.   title  : SatIPServer:1 2
    43.   encoder  : Lavf56.38.102
    44.   Stream #0:0: Video: mpeg2video ([2][0][0][0] / 0x0002), yuv420p, 544x576 [SA
    45. R 32:17 DAR 16:9], q=2-31, max. 15000 kb/s, 25 fps, 25 tbr, 90k tbn, 25 tbc
    46.   Stream #0:1(eng): Audio: mp2 ([4][0][0][0] / 0x0004), 48000 Hz, stereo, 192
    47. kb/s
    48. Stream mapping:
    49.   Stream #0:2 -> #0:0 (copy)
    50.   Stream #0:0 -> #0:1 (copy)
    51.  
    52.  
     
  5. mm1352000
    • Team MediaPortal

    mm1352000 Development Group

    Joined:
    September 1, 2008
    Messages:
    21,541
    Likes Received:
    4,752
    Ratings:
    +8,221 / 17
    Home Country:
    New Zealand New Zealand
    @Nervesagent
    I'm sorry, it's been almost 3 months since your last post in this thread. Since that time I've responded to many other threads, and so unfortunately I've forgotten pretty much everything we talked about, what you're using, why you're using it etc. etc. etc.

    Before we go any further, can you please give a short summary of what you have, what you're trying to achieve, what is working, and what is not working. This will help me to help you.

    All that I remember is that you have (or had) 2 networked tuners - an Anysee N7 and a Fritz! repeater. AFAIK both of those are compatible with SAT>IP/KABEL>IP. Therefore they should "just work" with TVE 3.5. However, you wanted to use TVE 3, which has IPTV support but does not have SAT>IP support. I don't remember or understand why you're also using the VODServer, what modifications you made to it, and why. I also don't remember if you're using the standard or new/merged IPTV filter...
     
  6. Nervesagent

    Nervesagent Portal Pro

    Joined:
    February 26, 2014
    Messages:
    150
    Likes Received:
    7
    Gender:
    Male
    Ratings:
    +14 / 0
    Home Country:
    Denmark Denmark
    Yeah I kind of fiddle around alot.

    Currently I'm on MePo 1.12 with TVE 3
    Anysee N7 works perfectly (especially now I got the dvbepg working for it)
    Fritz works fine with VoDserver. It used to have a problem with the ffmpeg method so I modded VodServer to use VLC as a recoder. Now I've updated the FritzIos 6.23 firmware to 6.30 ffmpeg no longer has that problem, thus the regular VodServer works as well.
    So far I'm pretty happy with my setup now, which means I'm trying to tweak the little annoyances out of it.

    I'd love to get the (dvb)epg working for the Fritz too, but that means I'd have to be able to scan the channels like the N7 I think (without VodServer).


    I've tried to get TVE3.5 to work, but until now I have not been succesful in doing so.
    I've had problems with the 10yr AE crashing and now with the Summer update as well..as I recall I could not scan any channels in the tvsetup, but I used the DVBIP tuner since I didn't know any better.. , and for Summer update I heard IPTV was broken. I didn't know I may have been able to scan differently?
    This week I've tried to get a nightly running but I'm only getting the error message that tv-service is not running when I try running setuptv.exe from D:\Program Files (x86)\Team MediaPortal\MP2-Server\Plugins\SlimTv.Service\SetupTv
    I can see tv-server service for TVE3 is running and MediaPortal 2 Server service is running (for TVE3.5?)
    I'm willing to give MePo2 with TVE3.5 a shot, but I just can't get the tv-section running... I'll start another thread about that if you want?
    The reason I say that the Fritz is not 100% KABEL>IP compatible is because of similar problems user Powermarcel had on the Dutch Tweakers.net forum. He seems to know what he's talking about. One of the reasons for not being compatible is that the command pids=all does not result in scanning all channels... (that's my n00b knowledge got from reading page after page..).
     
  7. FreakyJ
    • Team MediaPortal

    FreakyJ Development Group

    Joined:
    July 25, 2010
    Messages:
    4,021
    Likes Received:
    839
    Gender:
    Male
    Ratings:
    +1,424 / 1
    Home Country:
    Germany Germany
    You have to stop tve3 before starting mp2 server with tve 3.5
     
  8. Nervesagent

    Nervesagent Portal Pro

    Joined:
    February 26, 2014
    Messages:
    150
    Likes Received:
    7
    Gender:
    Male
    Ratings:
    +14 / 0
    Home Country:
    Denmark Denmark
    Ofcourse I've tried stopping and disabling the tvserver service before running the setuptv.exe in D:\Program Files (x86)\Team MediaPortal\MP2-Server\Plugins\SlimTv.Service\SetupTv.

    I think I should start another thread about this and start from scratch, by uninstalling and deleting all MP2 folders in program files and programdata and post some logs right? Just to keep this thread from becoming contaminated..
    edit: here's the MePo2 testing thread: https://forum.team-mediaportal.com/threads/mepo2-nightly-tve3-5-network-tuner-test.131709/
     
    Last edited: August 14, 2015
  9. mm1352000
    • Team MediaPortal

    mm1352000 Development Group

    Joined:
    September 1, 2008
    Messages:
    21,541
    Likes Received:
    4,752
    Ratings:
    +8,221 / 17
    Home Country:
    New Zealand New Zealand
    I've seen your thread. Unfortunately I'm not able to assist with MP2 Server setup and configuration.
     
  10. Nervesagent

    Nervesagent Portal Pro

    Joined:
    February 26, 2014
    Messages:
    150
    Likes Received:
    7
    Gender:
    Male
    Ratings:
    +14 / 0
    Home Country:
    Denmark Denmark
    Decided to stick with MP1.12 for now.
    Is there any news on a TV-server filter that might work to get the streams from my Fritz DVB-C network tuner to work in MePo without having to use VodServer (-vcodec copy -acodec copy -f mpegts)?[DOUBLEPOST=1444992260][/DOUBLEPOST]Here's the latest log while trying to preview a channel. I just edited an existing entry in the tv-server configuration.[DOUBLEPOST=1444992931][/DOUBLEPOST]Could it be trying to tune to the wrong subchannel? Are these the same as FFMPEG stream# ?
    Here's how ffmpeg treats them.

    Code (Text):
    1.  
    2. Input #0, rtsp, from 'rtsp://192.168.1.65:554/?freq=450&bw=8&msys=dvbc&mtype=256
    3. qam&sr=6900&specinv=0&pids=0,16,17,18,20,3800,3801,3811,3901':
    4.   Metadata:
    5.   title  : SatIPServer:1 2
    6.   Duration: N/A, start: 4933.182689, bitrate: N/A
    7.   Program 19441
    8.   Metadata:
    9.   service_name  : FOX Sports 1 Eredivisie HD
    10.   service_provider: Ziggo
    11.   Program 19442
    12.   Metadata:
    13.   service_name  : Veronica HD / Disney XD
    14.   service_provider: Ziggo
    15.   Program 19443
    16.   Metadata:
    17.   service_name  : Nick Hits
    18.   service_provider: Ziggo
    19.   Program 19444
    20.   Metadata:
    21.   service_name  : Boomerang
    22.   service_provider: Ziggo
    23.   Program 19446
    24.   Metadata:
    25.   service_name  : CI
    26.   service_provider: Ziggo
    27.   Program 19447
    28.   Metadata:
    29.   service_name  : CNN
    30.   service_provider: Ziggo
    31.   Stream #0:1: Video: mpeg2video (Main) ([2][0][0][0] / 0x0002), yuv420p(tv),
    32. 544x576 [SAR 32:17 DAR 16:9], max. 15000 kb/s, 25 fps, 25 tbr, 90k tbn, 50 tbc
    33.   Stream #0:0(eng): Audio: mp2 ([4][0][0][0] / 0x0004), 48000 Hz, stereo, s16p
    34. , 192 kb/s
    35.   Stream #0:2(eng): Subtitle: dvb_teletext ([6][0][0][0] / 0x0006)
    36.   Program 30441
    37.   Metadata:
    38.   service_name  : Ziggo Live Events FOX Sports
    39.   service_provider: Ziggo
    40. Output #0, mpegts, to 'pipe:':
    41.   Metadata:
    42.   title  : SatIPServer:1 2
    43.   encoder  : Lavf56.38.102
    44.   Stream #0:0: Video: mpeg2video ([2][0][0][0] / 0x0002), yuv420p, 544x576 [SA
    45. R 32:17 DAR 16:9], q=2-31, max. 15000 kb/s, 25 fps, 25 tbr, 90k tbn, 25 tbc
    46.   Stream #0:1(eng): Audio: mp2 ([4][0][0][0] / 0x0004), 48000 Hz, stereo, 192
    47. kb/s
    48. Stream mapping:
    49.   Stream #0:1 -> #0:0 (copy)
    50.   Stream #0:0 -> #0:1 (copy)
    51. Press [q] to stop, [?] for help
    52. [2015-10-16-12:51:26.524][INFO ][qtp380242442-2015 - /channelz?id=CNN][CommandRu
    53. nnerService] /channelz /play Opening response output stream
    54. frame=  16 fps=0.0 q=-1.0 size=  133kB time=00:00:01.27 bitrate= 854.5kbits/
    55. frame=  29 fps= 27 q=-1.0 size=  180kB time=00:00:01.79 bitrate= 824.8kbits/
    56. frame=  37 fps= 23 q=-1.0 size=  389kB time=00:00:02.11 bitrate=1507.2kbits/
    57. frame=  53 fps= 25 q=-1.0 size=  525kB time=00:00:02.75 bitrate=1563.8kbits/
    58. frame=  60 fps= 22 q=-1.0 size=  749kB time=00:00:03.03 bitrate=2024.0kbits/
    59.  
     
    Last edited: October 16, 2015
  11. Nervesagent

    Nervesagent Portal Pro

    Joined:
    February 26, 2014
    Messages:
    150
    Likes Received:
    7
    Gender:
    Male
    Ratings:
    +14 / 0
    Home Country:
    Denmark Denmark
    edit:

    Would changing DirectShow filter / settings have any effect?
    There used to be a vlc source filter / splitter but that doesn't work anymore.
     
Loading...
Thread Status:
Not open for further replies.

Users Viewing Thread (Users: 0, Guests: 0)

  1. This site uses cookies to help personalise content, tailor your experience and to keep you logged in if you register.
    By continuing to use this site, you are consenting to our use of cookies.
    Dismiss Notice
  • About The Project

    The vision of the MediaPortal project is to create a free open source media centre application, which supports all advanced media centre functions, and is accessible to all Windows users.

    In reaching this goal we are working every day to make sure our software is one of the best.

             

  • Support MediaPortal!

    The team works very hard to make sure the community is running the best HTPC-software. We give away MediaPortal for free but hosting and software is not for us.

    Care to support our work with a few bucks? We'd really appreciate it!